アットウィキロゴ
Crackpot Evangelist

BPM:200
1
①□⑧④ |①-②-|
②⑤□□ |③-④-|
③□□⑥ |⑤-⑥-|
□⑦□□ |⑦-⑧-|
2
③□□⑧ |①-②-|
□□①④ |③-④-|
⑤□②□ |⑤-⑥-|
⑦□□⑥ |⑦-⑧-|
3
⑤□⑦□ |①②③④|
□⑥□⑧ |⑤-⑥-|
□①②□ |⑦-⑧-|
□③④□ |--⑨⑩|

□□□□
□□□□
⑨⑩□□
□□□□
4
②⑦□⑥ |①-②-|
□□⑧□ |③④⑤-|
□⑨①□ |⑥-⑦-|
□⑤④③ |⑧-⑨-|
5
①□⑧④ |①-②-|
②⑤□□ |③-④-|
③□□⑥ |⑤-⑥-|
□⑦□□ |⑦-⑧-|
6
③□□⑧ |①-②-|
□□②④ |③-④-|
⑤①□□ |⑤-⑥-|
⑦□□⑥ |⑦-⑧-|
7
⑤□⑦□ |①②③④|
□⑥□⑧ |⑤-⑥-|
□①②□ |⑦-⑧-|
□③④□ |--⑨⑩|

□□□□
□□□□
⑨⑩□□
□□□□
8
⑨□⑦④ |①②③-|
□⑥□⑦ |④-⑤-|
⑧□①② |⑥-⑦-|
□③⑤□ |⑧-⑨-|
9
□⑤⑤③ |①-②-|
□⑧②□ |③-④-|
⑦④③① |⑤-⑥-|
□⑦⑥① |⑦-⑧-|
10
③⑧④⑤ |①-②-|
③□⑥① |③-④-|
□⑦②⑤ |⑤-⑥-|
⑦□□① |⑦-⑧-|
11
③□⑦□ |①-②-|
③⑤⑧⑧ |③-④-|
④□②⑦ |⑤-⑥-|
⑥⑤①① |⑦--⑧|
12
①⑦□④ |--①-|
□③□□ |②-③-|
⑤②④⑥ |④-⑤-|
□□②⑥ |⑥-⑦-|
13
□□④□ |①-②-|
□③②① |③-④-|
□③□□ |⑤-⑥-|
①□□□ |⑦-⑧-|

□□□□
⑦□□⑧
⑦□⑤□
□⑥⑤□
14
①①□□ |①-②-|
□□③□ |③-④-|
□②□③ |⑤-⑥-|
□□④□ |⑦-⑧-|

□⑧⑤⑤
□⑦□□
□□⑦□
□⑥□□
15
⑧⑯⑮⑦ |①②③④|
⑥⑭⑬⑤ |⑤⑥⑦⑧|
④⑫⑪③ |⑨⑩⑪⑫|
②⑩⑨① |⑬⑭⑮⑯|
16
⑧□⑬⑦ |①②③④|
⑥□⑬⑤ |⑤⑥⑦⑧|
④⑫⑪③ |⑨⑩⑪⑫|
②⑩⑨① |⑬---|
17
⑦□⑦□ |①---|
⑥①⑥② |②③④-|
⑤□⑤③ |⑤-⑥-|
①□□④ |⑦---|
18
□⑨⑨① |①-②③|
□④□⑦ |④-⑤⑥|
□③□⑥ |⑦-⑧-|
⑧②①⑤ |⑨---|
19
⑦□⑦□ |①---|
①□□③ |②-③④|
⑥②⑥④ |⑤-⑥-|
□①□⑤ |⑦---|
20
□⑧□① |①-②③|
②③④⑦ |④-⑤⑥|
□□⑨⑥ |⑦-⑧-⑨-|
□⑩①⑤ |⑩---|
21
⑦□⑦□ |①---|
①□□③ |②-③④|
⑥②⑥④ |⑤-⑥-|
①□□⑤ |⑦---|
22
⑨⑨□① |①-②③|
②③④⑦ |④-⑤⑥|
□□□⑥ |⑦-⑧-|
⑧⑧①⑤ |⑨---|
23
⑨⑩□② |①-②-|
③□⑥□ |③-④⑤|
①⑦⑤□ |⑥-⑦-|
□□④⑧ |⑧-⑨⑩|
24
□□①□ |①-②-|
③⑤□□ |③-④-|
⑧□⑥④ |⑤-⑥-|
⑦②□⑦ |⑦-⑧-|
25
⑤□①① |①-②③|
⑥□④④ |④-⑤⑥|
□②⑩⑦ |⑦-⑧-|
□③⑧⑨ |⑨-⑩-|
26
⑤③②④ |①-②-|
□①□② |③-④-|
①③⑩④ |⑤--⑥⑦⑧|
⑨⑧⑦⑥ |⑨-⑩-|
27
□④①⑦ |①-②-|
⑤①③③ |③-④-|
②⑥⑦⑤ |⑤-⑥-|
⑧⑨⑩⑪ |⑦---⑧⑨⑩⑪|
28
①③②⑥ |①-②-|
⑦⑧⑨⑩ |③-④-|
①⑤□④ |⑤-⑥-|
⑪□□□ |⑦⑧⑨⑩⑪---|
29
⑤⑤③⑧ |①-②-|
⑦□□□ |③-④-|
②⑦⑥③ |⑤-⑥-|
□④①① |⑦-⑧-|
30
□⑥⑥□ |①-②③|
□①①□ |④-⑤-|
⑤⑧⑨⑦ |⑥-⑦-|
④⑧③② |⑧-⑨-|
31
①□⑤② |①-②-|
⑥①⑦⑤ |③-④-|
③□□⑦ |⑤-⑥-|
③⑧□④ |⑦-⑧-|
32
⑧③⑧① |①-②-|
□□□□ |③-④⑤|
④⑤⑥□ |⑥-⑦-|
⑦□②□ |⑧---|
33
□□□② |①---|
⑨③⑥□ |②-③④|
⑩④⑦① |⑤-⑥⑦|
□⑤⑧① |⑧-⑨⑩|
34
⑦⑧□⑤ |①②③-|
□□□① |④-⑤-|
□⑥□② |⑥-⑦⑧|
④⑩⑨③ |-⑨⑩-|
35
□□□② |①---|
③□⑥□ |②-③④|
④□⑦① |⑤-⑥⑦|
⑤□⑧① |⑧-⑨⑩|

□□□□
□□□⑨
□□□⑩
□□□□
36
⑧⑤④⑫ |①②③-|
⑨①⑥⑬ |④-⑤-|
⑩②□⑭ |⑥-⑦-|
⑪③⑦⑮ |⑧⑨⑩⑪⑫⑬⑭⑮|
37
⑦⑥④⑨ |①-②③|
□②⑤□ |-④⑤-|
⑧①①⑩ |⑥-⑦⑧|
□③□□ |-⑨⑩-|
38
□④⑦□ |①-②-|
①⑧⑤③ |③-④⑤|
□⑥□⑨ |⑥⑦⑧-|
□□②⑨ |⑨---|
39
①⑨⑫④ |①②③④|
⑤⑬⑩⑧ |⑤⑥⑦⑧|
⑪⑮②⑯ |⑨⑩⑪⑫|
③⑦⑥⑭ |⑬⑭⑮⑯|
40
①⑨⑤□ |①---|
□⑧④□ |----|
□⑦③□ |②③④⑤|
□⑥②□ |⑥⑦⑧⑨|
41
⑧□□⑦ |①-②③|
②□⑩⑥ |④-⑤⑥|
③□□⑤ |⑦-⑧-|
④□⑨① |⑨-⑩-|
42
□①□⑧ |①②③-|
⑥②□□ |④-⑤-|
□③⑤□ |⑥-⑦-|
⑨⑦□④ |⑧-⑨-|
43
①⑤③□ |①-②-|
□□⑥□ |③-④-|
⑦②□④ |⑤-⑥-|
□□□⑧ |⑦-⑧-|
44
①□□□ |①-②-|
□⑤□□ |③-④-|
□③□④ |⑤-⑥-|
□⑥②□ |⑦⑧⑨⑩|

⑩⑨⑧⑦
□□□□
□□□□
□□□□
45
□□□□ |①-②③|
②⑩⑦□ |④-⑤⑥|
③□⑥⑨ |⑦-⑧-|
④⑧⑤① |⑨-⑩-|
46
□⑤①⑤ |①-②-|
④⑦□① |③-④-|
□②⑥⑧ |⑤-⑥-|
□□□③ |⑦-⑧-|
47
⑤□□□ |①-②-|
□□②⑥ |③-④-|
⑦③□□ |⑤-⑥-|
①□⑧④ |⑦-⑧-|
48
□□□① |①---|
□□②□ |②---|
□③□□ |③---|
④□□□ |④---|
49
②□□⑥ |①--②|
⑧□□□ |--③④|
□⑤④③ |⑤-⑥-|
□⑦①① |⑦-⑧-|
50
⑧□①⑦ |①-②③|
□②③④ |④-⑤-|
□⑥□□ |⑥-⑦-|
⑤□□⑨ |⑧-⑨-|
51
□④②□ |①--②|
□□□⑤ |--③-|
①⑥□□ |④-⑤-|
③□⑧⑦ |⑥-⑦⑧|
52
□□④② |①--②|
⑨⑧⑦⑥ |--③-|
③⑤□□ |④-⑤-|
□①□□ |⑥⑦⑧⑨|
53
□⑤④③ |①--②|
□□□⑧ |--③④|
⑦□□□ |⑤-⑥-|
②□①⑥ |⑦-⑧-|
54
□⑧⑦⑥ |①--②|
①⑤②□ |--③-|
□③□② |④-⑤-|
□①④□ |⑥⑦⑧-|
55
④□□□ |①②③④|
⑧□⑤③ |⑤⑥⑦⑧|
②⑥□□ |⑨⑩⑪⑫|
□□⑦① |⑬⑭⑮⑯|

□⑯□⑬
□⑫□□
□□⑪⑨
⑩⑭□⑮
56
②□①□ |①---|
④□②④ |②---|
□③□③ |③---|
④□③④ |④---|
57
④□□② |①-②③|
⑧□⑦□ |-④⑤-|
①⑤③⑥ |⑥⑦-⑧|
⑧①□□ |-⑨⑩⑪|

□□⑪□
□□□□
□□□□
□⑩⑨□
58
④①□② |①-②③|
□⑧⑦□ |-④⑤-|
⑧⑤③□ |⑥⑦-⑧|
□□□⑥ |-⑨⑩⑪|

□⑩⑨□
□□□□
□□□□
□□⑪□
59
④□⑪② |①-②③|
⑧⑩⑦□ |-④⑤-|
□⑤③⑥ |⑥⑦-⑧|
⑧①□⑨ |-⑨⑩⑪|
60
⑦①□④ |①②③④|
□□□□ |⑤⑥⑦⑧|
③⑤②⑧ |⑨⑩⑪⑫|
□□⑥□ |⑬⑭⑮⑯|

□□⑯□
⑪⑮⑩⑫
□□□□
⑬⑨□⑭
61
④①⑪② |①-②③|
⑧□⑦□ |-④⑤-|
□⑤③⑥ |⑥⑦-⑧|
⑧⑩⑨□ |-⑨⑩⑪|
62
④①□② |①-②③|
□⑧⑦□ |-④⑤-|
⑧⑤③□ |⑥⑦-⑧|
□□□⑥ |-⑨⑩⑪|

□⑩⑨□
□□□□
□□□□
□□⑪□
63
④□⑪② |①-②③|
⑧⑩⑦□ |-④⑤-|
□⑤③⑥ |⑥⑦-⑧|
⑧①□⑨ |-⑨⑩⑪|
64
⑦①□④ |①②③④|
□□□□ |⑤⑥⑦⑧|
③⑤②⑧ |⑨⑩⑪⑫|
□□⑥□ |⑬⑭⑮⑯|

□□⑯□
⑪⑮⑩⑫
□□□□
⑬⑨□⑭
65
□①□⑤ |①---②-|
□⑦⑧□ |--③-④-|
①④②⑤ |⑤---⑥-|
□⑥③□ |--⑦-⑧-|
66
⑥①⑦⑦ |①---②-|
□□⑨⑤ |--③-④-|
①④③□ |⑤-⑥-⑦-|
□⑧⑤② |--⑧-⑨-|
67
□①□⑦ |①---②-|
⑥□□□ |--③-④-|
①④③⑤ |⑤-⑥-⑦-|
□□⑤② |⑧⑨⑩⑪|

⑧□⑪□
□□□⑨
⑩□□□
□□□□
68
□③□□ |①②③④|
□⑦④□ |⑤⑥⑦⑧|
□□⑥□ |⑨⑩⑪⑫|
①⑤⑧② |⑬⑭⑮⑯|

⑬□⑯⑫
⑨□□⑭
⑮⑪□⑩
□□□□
69
⑧①⑪□ |①-②③|
□⑤③□ |-④⑤-|
□⑩⑨⑥ |⑥⑦-⑧|
④□⑦② |-⑨⑩⑪|
70
□①□□ |①-②③|
⑧⑤③□ |-④⑤-|
□□□⑥ |⑥⑦-⑧|
④□⑦② |-⑨⑩⑪|

□⑩⑨□
□□□□
□□⑪□
□□□□
71
⑧□□⑨ |①-②③|
⑩⑤③□ |-④⑤-|
□①⑪⑥ |⑥⑦-⑧|
④□⑦② |-⑨⑩⑪|
72
□①④□ |①②③④|
⑬⑤⑩② |⑤⑥⑦⑧|
⑪⑨□⑧ |⑨⑩⑪⑫|
⑦③⑫⑥ |⑬---|
73
④□□② |①-②③|
□□□□ |-④⑤-|
□⑤③□ |⑥⑦-⑧|
□①□□ |--⑨-|

□□□□
⑧□⑦□
□□□⑥
⑧⑨□□
74
④①□② |①-②③|
□□□□ |-④⑤-|
□⑤③□ |⑥⑦-⑧|
□□□□ |--⑨-|

□⑨□□
□⑧⑦□
⑧□□□
□□□⑥
75
④□□② |①-②③|
⑧□⑦□ |-④⑤-|
□⑤③⑥ |⑥⑦-⑧|
⑧①□⑨ |--⑨-|
76
⑦①□④ |①②③④|
□□□□ |⑤⑥⑦⑧|
③⑤②⑧ |⑨⑩⑪⑫|
□□⑥□ |⑬⑭⑮⑯|

□□⑯□
⑪⑮⑩⑫
□□□□
⑬⑨□⑭
77
④①□② |①-②③|
⑧□⑦□ |-④⑤-|
□⑤③⑥ |⑥⑦-⑧|
⑧⑨□□ |--⑨-|
78
④①□② |①-②③|
□□□□ |-④⑤-|
□⑤③□ |⑥⑦-⑧|
□□□□ |--⑨-|

□⑨□□
□⑧⑦□
⑧□□□
□□□⑥
79
④□□② |①-②③|
⑧□⑦□ |-④⑤-|
□⑤③⑥ |⑥⑦-⑧|
⑧①□⑨ |--⑨-|
80
⑦①□④ |①②③④|
⑪⑬⑩⑫ |⑤⑥⑦⑧|
③⑤②⑧ |⑨⑩⑪⑫|
⑬⑨⑥□ |⑬---|
81
□①□⑤ |①---②-|
□⑦⑧□ |--③-④-|
①④②⑤ |⑤---⑥-|
□⑥③□ |--⑦-⑧-|
82
⑥①⑦⑦ |①---②-|
□□⑨⑤ |--③-④-|
①④③□ |⑤-⑥-⑦-|
□⑧⑤② |--⑧-⑨-|
83
□①□⑦ |①---②-|
⑥□□□ |--③-④-|
①④③⑤ |⑤-⑥-⑦-|
□□⑤② |⑧⑨⑩⑪|

⑧□⑪□
□□□⑨
⑩□□□
□□□□
84
⑧□⑪□ |①-②-③-|
□①②⑨ |④-⑤-⑥-|
⑩⑦⑥□ |⑦---|
⑤③□④ |⑧⑨⑩⑪|
85
⑧①⑪□ |①-②③|
□⑤③□ |-④⑤-|
□⑩⑨⑥ |⑥⑦-⑧|
④□⑦② |-⑨⑩⑪|
86
□①□□ |①-②③|
□⑤③□ |-④⑤-|
□□□□ |⑥⑦-⑧|
④□□② |-⑨⑩⑪|

□⑩⑨□
⑧□□□
□□⑪⑥
□□⑦□
87
⑧□□⑨ |①-②③|
⑩⑤③□ |-④⑤-|
□①⑪⑥ |⑥⑦-⑧|
④□⑦② |-⑨⑩⑪|
88
□①④□ |①②③④|
□⑤□② |⑤⑥⑦⑧|
□□□⑧ |⑨⑩⑪⑫|
⑦③□⑥ |⑬⑭⑮⑯|

⑮□□⑭
⑬□⑩□
⑪⑨⑯□
□□⑫□
89
□①□□ |①---|
□⑤□② |②---|
□□□□ |③---|
④□□③ |④--⑤|
90
②⑥⑤③ |①-②-|
□□①□ |③---|
⑥□□⑤ |④-⑤-|
□④□□ |⑥---|
91
⑪⑩⑨⑧ |①②③-|
□③②① |④⑤-⑥|
⑭⑬⑫□ |⑦⑧⑨⑩|
⑥⑦⑤④ |⑪⑫⑬⑭|
92
⑩⑪⑬⑫ |①-②③|
②③④⑤ |④⑤-⑥|
□□□① |⑦-⑧⑨|
⑥⑦⑨⑧ |⑩⑪⑫⑬|
93
⑬⑭⑮⑯ |①②③④|
⑤⑥⑧⑦ |⑤⑥⑦⑧|
①②④③ |⑨⑩⑪⑫|
⑨⑩⑫⑪ |⑬⑭⑮⑯|
94
□□□□ |①---|
□□□□ |----|
①□□□ |----|
□□□□ |----|
最終更新:2022年11月29日 05:13