アットウィキロゴ
Crackpot Evangelist

1
□□□□ |----|
□□□□ |----|
□□□□ |----|
□□□□ |----|
2
①□□⑤ |①-②③|
②□□□ |④-⑤-|
④□③□ |⑥⑦⑧-|
□□□□ |⑨-⑩-|

⑩□□□
□□⑥□
□⑦□⑧
□□⑨□
3
□①③⑩ |①②③-|
□②□□ |④-⑤⑥|
④⑨⑦□ |⑦-⑧-|
⑥⑤□⑧ |⑨-⑩-|
4
□□⑧□ |①②③④|
①②③④ |⑤-⑥-|
⑤□⑩□ |⑦-⑧-|
□⑦⑥⑨ |--⑨⑩|
5
□⑨⑥② |①-②-|
③①□□ |③④⑤-|
□④□⑧ |⑥-⑦-|
□⑦⑤□ |⑧-⑨-|
6
①□□⑤ |①-②③|
②□□□ |④-⑤-|
④□③□ |⑥⑦⑧-|
□□□□ |⑨-⑩-|

⑩□□□
□□⑥□
□⑦□⑧
□□⑨□
7
□①③⑩ |①②③-|
□②□□ |④-⑤⑥|
④⑨⑦□ |⑦-⑧-|
⑥⑤□⑧ |⑨-⑩-|
8
□□⑧□ |①②③④|
①②③④ |⑤-⑥-|
⑤□⑩□ |⑦-⑧-|
□⑦⑥⑨ |--⑨⑩|
9
□⑩□⑩ |①②③④|
⑧①②③ |⑤-⑥⑦|
④⑫□⑥ |⑧⑨⑩-|
⑦⑨⑤⑪ |⑪-⑫-|
10
①⑥④⑧ |①②③-|
□②①⑥ |④-⑤-|
④⑨③□ |⑥-⑦-|
⑦□⑤⑧ |⑧-⑨-|
11
①⑥④⑧ |①②③-|
⑦②①⑥ |④-⑤-|
⑤⑨③□ |⑥-⑦-|
⑨④□⑧ |⑧-⑨-|
12
①⑥④⑧ |①②③-|
⑨②①⑦ |④-⑤-|
④⑩③⑥ |⑥-⑦-|
□⑤□⑧ |⑧-⑨⑩|
13
①⑥③⑧ |①-②-|
□④⑥□ |③④⑤-|
⑤□③⑨ |⑥-⑦-|
②⑦①⑧ |⑧-⑨-|
14
①□④⑨ |①-②-|
①⑤□③ |③-④⑤|
⑥⑧②□ |⑥-⑦-|
③□⑦⑧ |⑧-⑨-|
15
⑥①⑪□ |①②③-|
④⑩②⑤ |④⑤⑥⑦|
□⑨⑦③ |⑧-⑨-|
□⑧⑩□ |⑩--⑪|
16
⑦⑪⑭⑧ |①②③④|
⑤⑮⑩④ |⑤⑥⑦⑧|
③⑨⑯⑥ |⑨⑩⑪⑫|
①⑬⑫② |⑬⑭⑮⑯|
17
⑦⑨⑬⑧ |①②③④|
⑤⑬⑩⑥ |⑤⑥⑦⑧|
③⑪□④ |⑨⑩⑪⑫|
①□⑫② |⑬---|
18
□⑤□④ |①---|
⑥⑦⑤③ |②③④-|
⑦⑥①② |⑤-⑥-|
①①□① |⑦---|
19
①⑥①□ |①-②③|
□□□⑤ |④-⑤⑥|
□□④② |⑦-⑧-|
①③①□ |⑨⑩⑪⑫|

⑪□⑫⑦
⑧⑨⑦□
⑨⑧□□
□□□⑩
20
□□□⑤ |①---|
⑥⑦□④ |②-③④|
⑦⑥②③ |⑤-⑥-|
①②①□ |⑦---|
21
①⑥①⑤ |①-②③|
⑧⑩⑦⑨ |④-⑤⑥|
⑩⑧④⑨ |⑦-⑧-⑨-|
①③①② |⑩---|
22
①⑤□⑤ |①---|
⑥□④⑦ |②-③④|
⑥□③⑦ |⑤-⑥-|
①②□② |⑦---|
23
①⑧①⑦ |①-②③|
⑧②⑨⑨ |④-⑤⑥|
⑧⑥⑤⑨ |⑦-⑧-|
①④①③ |⑨---|
24
⑧⑥⑤④ |①-②-|
⑧①□⑨ |③-④⑤|
⑧□⑩⑦ |⑥-⑦-|
①③⑦② |⑧-⑨⑩|
25
□⑤④⑤ |①-②-|
⑥③①□ |③-④-|
⑩②□⑦ |⑤-⑥-|
①⑨⑧③ |⑦⑧⑨⑩|
26
□□⑥⑤ |①-②③|
□□①① |④-⑤⑥|
□③④□ |⑦⑧⑨-|
②□□④ |⑩⑪⑫⑬|

⑦⑩□□
⑦⑧⑬□
□□□⑨
□⑫⑪□
27
⑦⑧⑨⑩ |①-②-|
⑥⑪□② |③④⑤-|
①④⑤⑥ |⑥---⑦⑧⑨⑩|
③⑬⑫② |⑪-⑫⑬|
28
□□□□ |①-②-|
□□①② |③-④-|
②③④□ |⑤-⑥-|
□□□① |⑦-⑧-⑨⑩⑪⑫|

⑤⑦⑧□
⑤⑥□□
□□□⑥
⑨⑩⑪⑫
29
⑦⑬□② |①-②③|
⑦⑬④③ |④⑤⑥-|
①⑤⑥⑧ |⑦-⑧-|
⑨⑩⑪⑫ |⑨⑩⑪⑫⑬---|
30
⑤□③② |①-②③|
⑥⑪⑤⑩ |④-⑤-|
①⑦④⑨ |⑥⑦⑧⑨|
⑧⑬□⑫ |⑩⑪⑫⑬|
31
③④⑤② |①-②-|
⑧□⑤⑦ |③④⑤-|
⑥⑨⑦⑧ |⑥-⑦-|
⑥⑨①□ |⑧-⑨-|
32
③④④② |①-②-|
⑨①③⑦ |③-④-|
⑧□⑤⑥ |⑤-⑥⑦|
⑤□②① |-⑧⑨-|
33
③⑧③⑧ |①-②-|
□⑧②□ |③-④⑤|
□④⑤⑥ |⑥-⑦-|
⑦①⑧① |⑧---|
34
⑥□⑤⑧ |①---|
③⑨②② |②-③④|
①⑦⑤⑧ |⑤-⑥⑦|
□④⑩② |⑧-⑨⑩|
35
⑪②⑤⑩ |①②③-|
⑦⑪⑥③ |④-⑤⑥|
①⑨⑦⑧ |⑦-⑧⑨|
④⑨□③ |-⑩⑪-|
36
□④②□ |①---|
□□□② |②-③④|
③□□□ |⑤-⑥⑦|
②□□① |⑧-⑨⑩|

□□□⑧
⑥⑨□□
□□⑤⑧
□⑦⑤⑩
37
③⑤④□ |①②③-|
□□②□ |④-⑤-|
□①□□ |⑥-⑦⑧|
□□□□ |⑨⑩⑪⑫⑬⑭⑮⑯|

□□□⑧
⑬⑭⑮⑯
⑦□⑥□
⑨⑩⑪⑫
38
②⑤③⑦ |①-②③|
⑨□□□ |-④⑤-|
⑥①⑥④ |⑥-⑦⑧|
⑧□□⑩ |-⑨⑩-|
39
①④⑦⑨ |①-②-|
□③①② |③-④⑤|
□⑥⑤□ |⑥⑦⑧-|
⑧②③□ |⑨---|
40
⑨⑪⑬⑮ |①②③④|
①⑤④⑧ |⑤⑥⑦⑧|
③⑦⑥② |⑨⑩⑪⑫|
⑯⑭⑫⑩ |⑬⑭⑮⑯|
41
□□□□ |①---|
□③④□ |----|
⑨②⑤① |②③④⑤|
⑧⑦⑥□ |⑥⑦⑧⑨|
42
⑧④③② |①-②③|
①⑦□⑦ |④-⑤⑥|
□⑩□⑥ |⑦-⑧-|
□□⑨⑤ |⑨-⑩-|
43
□③④⑨ |①②③-|
①⑦④⑥ |④-⑤-|
②⑩①⑧ |⑥-⑦⑧|
③⑤□⑥ |⑨-⑩-|
44
①①□□ |①-②-|
④□□□ |③-④-|
□□③□ |⑤-⑥-|
③□②□ |⑦-⑧⑨|

□⑧⑤□
□⑦⑨□
⑥□□□
□⑦□⑤
45
②□⑤① |①-②-|
③⑩⑪② |③-④-|
⑧⑥⑨① |⑤-⑥⑦|
④□⑦⑤ |⑧⑨⑩⑪|
46
⑤⑥⑦② |①-②③|
⑩□□③ |④-⑤⑥|
□⑦⑨④ |⑦-⑧-|
⑧①□⑨ |⑨-⑩-|
47
③⑤⑤① |①-②-|
□⑥②⑦ |③-④-|
①⑨⑧③ |⑤-⑥⑦|
⑨④②□ |⑧-⑨-|
48
⑧④⑦⑤ |①-②-|
②⑨③⑦ |③-④-|
⑥⑦□⑤ |⑤-⑥-|
□③①① |⑦-⑧⑨|
49
□④□□ |①---|
②□④□ |②---|
③④①③ |③---|
①②④□ |④---|
50
□□⑦① |①--②|
④②⑨② |③-④⑤|
⑤□③⑥ |⑥-⑦-|
⑥⑧□① |⑧-⑨-|
51
⑥②□① |①-②③|
⑧③□⑨ |④-⑤-|
⑤④⑦⑥ |⑥-⑦⑧|
⑩⑦⑤① |⑨-⑩-|
52
⑦②②① |①--②|
□⑥④□ |③-④-|
③⑨⑧⑤ |⑤-⑥-|
□⑤□① |⑦-⑧⑨|
53
□④④① |①--②|
⑤□⑥⑤ |③-④-|
⑧⑩⑨⑦ |⑤-⑥-|
②□③① |⑦⑧⑨⑩|
54
□□□① |①--②|
⑤③□④ |③-④⑤|
□□□□ |⑥-⑦-|
□②□① |⑧-⑨-|

⑥⑥□⑨
□□⑧□
□□□⑦
⑥□□□
55
□□①□ |①--②|
□□□□ |③-④-|
②④①□ |⑤-⑥-|
□□①③ |⑦-⑧-|

⑥⑤□□
□⑦□⑤
□□⑧□
□⑤□□
56
□□□② |①②③④|
③□⑥□ |⑤⑥⑦⑧|
⑤⑦□□ |⑨⑩⑪⑫|
①□④⑧ |⑬⑭⑮⑯|

⑪□⑩□
□⑬□⑭
□□⑯⑫
⑮⑨□□
57
□①⑨② |①②③-|
③⑩⑤□ |④-⑤⑥|
③⑥□⑨ |⑦⑧⑨-|
⑩⑧④⑦ |⑩---|
58
②⑥□⑧ |①-②③|
⑨□⑧④ |-④⑤-|
③⑦①□ |⑥⑦-⑧|
⑪⑥⑩⑤ |-⑨⑩⑪|
59
⑧⑧②□ |①-②③|
□⑥□④ |-④⑤-|
⑥⑪③① |⑥⑦-⑧|
⑨⑦⑩⑤ |-⑨⑩⑪|
60
⑧□②① |①-②③|
④⑪③⑥ |-④⑤-|
⑤⑨⑩⑦ |⑥⑦-⑧|
□□□⑥ |-⑨⑩⑪|
61
⑩④⑤⑥ |①②③④|
⑪⑯⑬⑨ |⑤⑥⑦⑧|
⑫⑭⑮⑧ |⑨⑩⑪⑫|
③②①⑦ |⑬⑭⑮⑯|
62
⑥②⑧④ |①-②③|
⑥□⑧⑪ |-④⑤-|
□⑨⑩□ |⑥⑦-⑧|
⑦③①⑤ |-⑨⑩⑪|
63
⑥②⑧④ |①-②③|
□⑥□⑪ |-④⑤-|
□⑨⑩① |⑥⑦-⑧|
⑦③①⑤ |-⑨⑩⑪|
64
⑫⑧⑨⑪ |①-②③|
②⑥④□ |-④⑤-|
③□□① |⑥⑦-⑧|
⑩⑦⑤□ |⑨⑩⑪⑫|
65
⑯⑮⑭⑬ |①②③④|
⑩⑦④① |⑤⑥⑦⑧|
⑪⑧⑤② |⑨⑩⑪⑫|
⑫⑨⑥③ |⑬⑭⑮⑯|
66
□□□□ |①--②--|
□⑥⑤① |③-④⑤⑥-|
□④②① |⑦--⑧⑨-|
□□□③ |⑩-⑪⑫⑬-|

□□⑩⑧
⑬□□□
⑨□□⑫
⑪⑦⑦□
67
③□□□ |①--②③-|
□⑦④① |④-⑤⑥⑦-|
□⑤①□ |⑧-⑨⑩⑪-|
□□⑥② |⑫-⑬⑭⑮-|

□⑨⑩⑧
⑬□□⑭
⑪□□⑫
⑮⑧□□
68
③⑨⑧⑥ |①--②③-|
⑬⑦②⑫ |④-⑤⑥⑦-|
⑪⑤①⑩ |⑧-⑨⑩⑪-|
⑭⑧④① |⑫⑬-⑭|
69
③⑪⑩⑦ |①②③④|
⑮⑧④⑭ |⑤⑥⑦⑧|
⑬⑤②⑫ |⑨⑩⑪⑫|
⑯⑨⑥① |⑬⑭⑮⑯|
70
②⑧⑨⑦ |①-②③|
⑭⑤④⑬ |④⑤⑥-|
⑩③①⑪ |⑦⑧⑨⑩|
⑫⑥⑥② |⑪⑫⑬⑭|
71
②⑫⑨⑦ |①-②③|
⑭⑤④⑬ |④⑤⑥-|
⑧③①⑪ |⑦⑧⑨⑩|
⑩⑥⑥② |⑪⑫⑬⑭|
72
②□□□ |①-②③|
□⑤④□ |④⑤⑥-|
□③①□ |⑦⑧⑨⑩|
□⑥⑥② |⑪⑫⑬⑭|

□⑩⑨⑦
⑫□□□
⑧□⑬⑪
⑭□□□
73
④⑩⑫⑦ |①②③④|
⑫⑧⑤① |⑤⑥⑦⑧|
□②□⑪ |⑨⑩⑪⑫|
□⑥⑨③ |----|
74
②⑥□⑧ |①-②③|
⑨□⑧④ |-④⑤-|
③⑦①□ |⑥⑦-⑧|
⑪□⑩⑤ |-⑨⑩⑪|
75
⑧⑧②□ |①-②③|
□⑥□④ |-④⑤-|
□⑪③① |⑥⑦-⑧|
⑨⑦⑩⑤ |-⑨⑩⑪|
76
⑧□②① |①-②③|
④⑪③⑥ |-④⑤-|
⑤⑨⑩⑦ |⑥⑦-⑧|
□□□□ |-⑨⑩⑪|
77
⑩④⑤⑥ |①②③④|
⑪⑯⑬⑨ |⑤⑥⑦⑧|
⑫⑭⑮⑧ |⑨⑩⑪⑫|
③②①⑦ |⑬⑭⑮⑯|
78
⑥②⑧④ |①-②③|
□□□⑪ |-④⑤-|
□⑨⑩□ |⑥⑦-⑧|
⑦③①⑤ |-⑨⑩⑪|
79
⑥②⑧④ |①-②③|
□□□⑪ |-④⑤-|
□⑨⑩① |⑥⑦-⑧|
⑦③□⑤ |-⑨⑩⑪|
80
⑫⑧⑨⑪ |①-②③|
②⑥④□ |-④⑤-|
③□□① |⑥⑦-⑧|
⑩⑦⑤□ |⑨⑩⑪⑫|
81
□⑬⑬□ |①②③④|
⑩⑦④① |⑤⑥⑦⑧|
⑪⑧⑤② |⑨⑩⑪⑫|
⑫⑨⑥③ |⑬---|
82
□□□□ |①--②--|
□⑥⑤① |③-④⑤⑥-|
□④②① |⑦--⑧⑨-|
□□□③ |⑩-⑪⑫⑬-|

□□⑩⑧
⑬□□□
⑨□□⑫
⑪⑦⑦□
83
③□□□ |①--②③-|
□⑦④① |④-⑤⑥⑦-|
□⑤①□ |⑧-⑨⑩⑪-|
□□⑥② |⑫-⑬⑭⑮-|

□⑨⑩⑧
⑬□□⑭
⑪□□⑫
⑮⑧□□
84
③⑨⑧⑥ |①--②③-|
⑬⑦②⑫ |④-⑤⑥⑦-|
⑪⑤①⑩ |⑧-⑨⑩⑪-|
⑭⑧④① |⑫⑬-⑭|
85
④⑦⑥⑤ |①-②-③-|
⑩⑤②⑨ |④-⑤-⑥-|
⑧④①⑪ |⑦---|
□⑦③⑥ |⑧⑨⑩⑪|
86
④□□⑤ |①-②③|
□□②□ |④⑤⑥-|
□□①□ |⑦⑧⑨⑩|
①□③⑥ |⑪⑫⑬⑭|

□□⑨□
□⑦□⑪
⑩⑧⑬⑫
□⑭□□
87
□⑦⑨⑤ |①-②③|
④□②⑩ |④⑤⑥-|
⑪⑧□⑬ |⑦⑧-⑨|
①⑫③⑥ |⑩⑪⑫⑬|
88
⑦⑪□⑤ |①-②③|
④⑫①⑨ |④⑤⑥-|
⑩⑬②□ |⑦⑧-⑨|
⑧□③⑥ |⑩⑪⑫⑬|
89
⑪⑭⑤⑧ |①-②③|
②⑮①⑨ |④⑤⑥⑦|
⑫□⑥④ |⑧⑨⑩⑪|
⑬③⑦⑩ |⑫⑬⑭⑮|
90
□⑤□□ |①---|
③□②□ |②---|
□①□□ |③---|
□□□④ |④--⑤|
91
⑥□⑥⑤ |①-②-|
⑤□③□ |③---|
□④②⑤ |④-⑤-|
⑤⑥①⑥ |⑥---|
92
⑫①□⑪ |①②③-|
⑧②⑦④ |④⑤-⑥|
③⑥③⑨ |⑦⑧⑨⑩|
⑩⑭⑤⑬ |⑪⑫⑬⑭|
93
⑭②①⑨ |①-②③|
⑧⑥⑦③ |④⑤⑥⑦|
④⑥①⑩ |⑧-⑨⑩|
⑪⑫⑤⑬ |⑪⑫⑬⑭|
94
□②①□ |①②③④|
□⑥⑧③ |⑤⑥⑦⑧|
⑤□④□ |⑨⑩⑪⑫|
□□⑦□ |⑬⑭⑮⑯|

□⑯⑮⑪
⑩□□□
□⑨□⑫
⑬⑭□□
95
②□□□ |①-②-|
□□□① |----|
②□□□ |----|
□□□① |----|
最終更新:2025年02月20日 15:01