アットウィキロゴ
和beat

BPM:150
1
□□□② |----|
□□③□ |----|
□□□□ |--①-|
①□□□ |②-③-|
2
⑦④④□ |①-②-|
□⑧□□ |③-④-|
□①③① |⑤-⑥-|
⑤□②⑥ |⑦-⑧-|
3
⑥④④⑦ |①-②-|
□⑦⑦□ |③-④-|
①③①□ |⑤-⑥-|
□②□⑤ |⑦---|
4
④⑤□□ |①-②-|
⑥□□□ |③-④⑤|
□①①③ |⑥-⑦-|
①□②□ |⑧---|

□□□□
□□⑧□
□⑧□□
□□□⑦
5
□④□□ |①-②-|
④①□□ |③-④-|
□□①③ |--⑤-|
②□□□ |⑥-⑦-|

□□□⑥
□□□□
□⑤⑦□
□□□□
6
⑦⑧④⑥ |①-②-|
□①①④ |③-④-|
⑤⑥⑦⑧ |⑤-⑥-|
①②③④ |⑦-⑧-|
7
□⑦④⑦ |①-②-|
□①①④ |③-④-|
⑤⑥⑦□ |⑤-⑥-|
①②③④ |⑦---|
8
④⑤⑥□ |①-②-|
①□①□ |③-④⑤|
⑥□□□ |⑥-⑦-|
①②③④ |⑧-⑨-|

□□□□
□⑧⑧□
□⑦⑧⑨
□□□□
9
□□□① |①-②-|
□□□① |③-④-|
□□□□ |----|
①②③□ |----|

④□□<
□□□□
□□□□
□□□④
10
1□□□ |----|
□□□□ |----|
□□□□ |----|
□□□□ |①---|
11
>□□① |①--②|
□②①□ |--③-|
□□□□ |④⑤--|
③①②□ |⑥---|

□⑥□□
□□□□
□⑤④□
□□□□
12
□□□1 |①--②|
①□<② |--③-|
□□□□ |④⑤--|
□①②③ |⑥-⑦-|

□□□□
4④⑤□
□>□④
□□□□

□⑥□□
□□□□
□⑦□□
□□□□
13
□□□□ |①--②|
□□□□ |--③-|
□□□1 |④⑤--|
①□□< |⑥---|

□⑥□②
□④⑤□
□□③□
□□①□
14
□□□② |①--②|
①□□< |--③-|
□③□□ |④⑤--|
1□①□ |⑥---|

□⑤④□
□□□□
□□□□
□□⑥□
15
>□□① |①--②|
1□②□ |--③-|
□□□□ |④⑤--|
③①□□ |⑥---|

□⑥□□
□□□□
□⑤④□
□□□□
16
□□③1 |①--②|
①□<□ |--③-|
□□②□ |④⑤--|
□①②□ |⑥⑦⑧-|

□□□□
4④⑤□
□>□④
□□□□

□⑥□□
□>□⑦
□⑧□6
□□□□
17
□□□□ |①--②|
□□□1 |--③-|
□□□□ |④⑤--|
①□□< |⑥---|

□⑥□②
□④⑤□
□□③□
□□①□
18
□□②∨ |①--②|
①⑤④□ |--③-|
□③□□ |④⑤--|
1□⑥① |⑥---|
19
①①⑦② |①-②③|
⑨⑤□⑧ |-④⑤-|
□⑩④□ |--⑥-|
③⑥□1 |⑦⑧⑨⑩|
20
②⑦⑦⑤ |①-②③|
□⑥⑥□ |-④⑤-|
□□□□ |⑥---|
□④③① |⑦---|
21
②□□□ |①-②③|
□□⑤□ |-④⑤-|
□④①① |--⑥-|
□□□③ |⑦⑧⑨⑩|

□⑦□□
⑧□□⑨
□□⑩□
□□⑥□
22
⑤⑨⑧② |①-②③|
□⑦⑥□ |-④⑤-|
□□□□ |⑥-⑦-|
①③④□ |⑧-⑨-|
23
□□□□ |①-②③|
④⑤□□ |-④⑤-|
□⑤□① |-⑥-⑦|
②③□① |⑧--⑨|

□□□⑥
□□□□
□□⑧⑦
⑨□⑧□
24
②③①⑥ |①-②③|
□□①⑥ |④⑤⑥-|
④⑤⑦□ |⑦---|
□□⑦□ |⑧-⑨⑩|

□□□□
⑧□⑩□
□□□⑨
⑧□□□
25
①①①□ |①-②③|
□□□④ |④-⑤-|
⑤□□□ |⑥-⑦⑧|
□③⑤② |⑨-⑩-|

□⑧□⑥
□□⑨□
□⑥⑩⑦
⑥⑩□□
26
①□①□ |①-②③|
⑤①□④ |④-⑤-|
□□□□ |⑥-⑦⑧|
③□⑤② |⑨-⑩-|

⑩⑥⑨⑩
□□⑥□
⑥□□⑦
□⑧□□
27
□③□□ |①-②③|
□□④□ |④-⑤-|
□①①□ |⑥-⑦⑧|
①⑤□② |⑨-⑩-|

□□⑩□
□⑥□⑨
⑥⑧□⑥
⑩□⑦□
28
①③□⑤ |①-②③|
①□④□ |④-⑤-|
□□①□ |⑥-⑦⑧|
□⑤□② |⑨-⑩-|

⑩□□□
⑩⑥□⑥
⑥⑧⑨⑥
⑧□⑦□
29
□①①□ |①-②③|
□□□④ |④-⑤-|
⑤□□□ |⑥-⑦⑧|
□③⑤② |⑨-⑩-|

□⑧□⑥
□□⑨□
□⑥⑩⑦
⑥⑩□□
30
①□①□ |①-②③|
⑤①□④ |④-⑤-|
□□□□ |⑥-⑦⑧|
③□⑤② |⑨-⑩-|

⑩⑥⑨⑩
□□⑥□
⑥□□⑦
□⑧□□
31
□③□□ |①-②③|
□□④□ |④-⑤-|
□①①□ |⑥-⑦⑧|
①⑤□② |⑨-⑩-|

□□⑩□
□⑥□⑨
⑥⑧□⑥
⑩□⑦□
32
①③□⑤ |①-②③|
①□④□ |④-⑤-|
□□①□ |⑥-⑦⑧|
□⑤□② |⑨-⑩-|

□□□□
⑩⑥□⑩
⑥⑧⑨⑥
⑧□⑦□
33
①□①□ |①-②③|
□⑤③□ |-④⑤-|
□□□□ |⑥⑦⑧⑨|
□□④② |⑩⑪⑫⑬|

□⑨□⑩
⑪□□□
⑧□⑥⑫
⑬⑦□□
34
③⑤①□ |①-②③|
□□□① |-④⑤-|
□②④□ |⑥⑦⑧⑨|
□□□□ |⑩⑪⑫⑬|

□□⑨□
□⑥□□
⑫⑬□⑧
⑩⑪⑦□
35
□□□① |①-②③|
□⑤③① |-④⑤-|
□□□□ |⑥⑦⑧⑨|
□□④② |⑩⑪⑫⑬|

⑪⑦□⑩
⑥□□□
□□⑧□
⑬⑨□⑫
36
□□□□ |①-②③|
□③⑤① |-④⑤-|
②④□① |⑥⑦⑧⑨|
□□□□ |⑩⑪⑫⑬|

⑦□□⑥
⑬⑫□□
□□⑪⑩
⑨□⑧□
37
□①①□ |①-②③|
□□□④ |④-⑤-|
⑤□□□ |⑥-⑦⑧|
□③⑤② |⑨-⑩-|

□⑧□⑥
□□⑨□
□⑥⑩⑦
⑥⑩□□
38
①□①□ |①-②③|
⑤①□④ |④-⑤-|
□□□□ |⑥-⑦⑧|
③□⑤② |⑨-⑩-|

⑩⑥⑨⑩
□□⑥□
⑥□□⑦
□⑧□□
39
□③□□ |①-②③|
□□④□ |④-⑤-|
□①①□ |⑥-⑦⑧|
①⑤□② |⑨-⑩-|

□□⑩□
□⑥□⑨
⑥⑧□⑥
⑩□⑦□
40
①③⑦□ |①-②③|
①⑥④□ |④-⑤-|
□⑥①□ |⑥-⑦-|
□⑤⑤② |⑧⑨⑩⑪⑫⑬⑭⑮|

⑧□□⑫
⑨□□⑬
⑩□□⑭
⑪□□⑮
41
□①□□ |①---|
□□□□ |②-③-|
□□□□ |--④-|
□∧□□ |--⑤-|

□□□□
□□③⑤
□④④⑤
□□②□
42
□1∨□ |①---|
□□□□ |②---|
□□□□ |③---|
□□①□ |④---|

②□□□
□③④□
□□□□
□□□□
43
①□②□ |①---|
□□④□ |--②-|
□③□① |--③-|
∧□1□ |--④-|
44
1□□∨ |①---|
□④④□ |②---|
□③③□ |③---|
□②②① |④---|
45
□①①② |①---|
①□□< |--②-|
□③□□ |--③-|
□□□1 |----|
46
□□□□ |①-②-|
1□□□ |③-④-|
>□□① |--⑤-|
□□□□ |----|

□⑤□□
□□□□
④□□□
□③②□
47
□□③② |①---|
□□②③ |--②-|
□□①1 |--③-|
①□□< |----|
48
□□□□ |①---|
□□□□ |----|
□□□□ |----|
1□□① |----|
49
④□⑥② |----|
⑤□③⑦ |①-②③|
□④□□ |④---|
①□⑤① |⑤-⑥⑦|
50
④□□④ |①---|
□□□□ |②-③-|
①③①④ |④--⑤|
②□□② |⑥-⑦-|

□□⑦□
⑥⑦□⑤
□□□□
□□⑥□
51
⑤①□③ |①---|
□□①④ |②-③④|
①□⑤□ |⑤---|
②□□② |⑥-⑦⑧|

□□⑦□
⑥□⑧□
□□□□
□□⑥□
52
③□□③ |①---|
□□□□ |②---|
①□□① |③-④⑤|
②□□② |⑥-⑦-|

□□⑦□
⑥□□□
□④⑤⑦
□⑥□□
53
⑤□□③ |①---|
□①④① |②-③④|
①⑤□□ |⑤---|
②□□② |⑥-⑦⑧|

□□⑦□
⑥□□⑧
□□□□
□□⑥□
54
□□□□ |①---|
□□□□ |②-③-|
①③①□ |④--⑤|
②□□② |⑥-⑦-|

④□⑤□
⑥⑥④⑦
□□□④
□□⑦□
55
□□□□ |①---|
□□③□ |②-③-|
①□①□ |④-⑤⑥|
②②□① |--⑦-|

④□□⑥
⑦⑤□□
⑥④□④
□□□⑦
56
⑦③④⑥ |①-②③|
□⑤②□ |④-⑤⑥|
□⑦④⑦ |⑦-⑧⑨|
④①①□ |⑩⑪⑫-|

□□□□
⑩□⑪⑧
□□□□
□⑫⑨□
57
⑨①①⑤ |①-②③|
□②□⑥ |④---⑤⑥⑦⑧|
①⑨③⑦ |⑨---|
④□□⑧ |⑩-⑪⑫|

□□□□
□□⑪□
⑩□□□
□⑫□□
58
⑦①①□ |①---|
⑤③⑧⑥ |②-③④|
⑨⑦②□ |⑤-⑥⑦|
⑤⑨④□ |-⑧⑨-|
59
□⑤①□ |①---|
□③⑦④ |②-③④|
□⑧⑤① |⑤---|
②⑥⑥② |⑥-⑦⑧|
60
⑤□①□ |①---|
□③□□ |②-③④|
⑤□④① |⑤-⑥⑦|
②□□② |-⑧⑨-|

□⑨□□
⑨□□⑥
□⑦□⑧
□⑦□□
61
⑤□①③ |①---|
□□④□ |②-③④|
□⑤□□ |⑤---|
②□①② |⑥-⑦⑧|

□□⑦□
⑥□□⑧
□□□□
□□⑥□
62
④□⑤□ |①---|
⑥⑥④⑦ |②-③-|
①③①④ |④--⑤|
②□⑦② |⑥-⑦-|
63
④□□□ |①---|
□□③□ |②-③-|
①④①④ |④--⑤|
②②□① |⑥-⑦-|

□⑦□⑤
⑥⑤□⑦
□□□□
□□□□
64
□□②□ |①---|
□□□□ |②---|
①□②□ |③-④⑤|
②①①□ |-⑥⑦-|

③④□⑤
③□⑦⑤
⑥④□③
□⑥⑦③
65
□□①□ |①---|
□①□□ |----|
□□①□ |----|
□□□□ |----|
66
□□□□ |----|
□□□□ |----|
□□□□ |----|
□□□□ |----|
最終更新:2022年08月29日 04:35