アットウィキロゴ
BPM:130
1
①②□□ |----|
□□□□ |----|
□□□□ |----|
□□□□ |①-②-|
2
□□①□ |①-②-|
⑤⑧□③ |③-④-|
□⑥④□ |⑤-⑥-|
□②⑦□ |⑦-⑧-|
3
□③□① |①-②-|
□□④□ |③-④-|
□⑤②⑤ |⑤---|
□①□③ |⑥-⑦-|

□□⑦⑥
□□□□
□□□□
□□□□
4
□①⑤⑤ |①-②-|
③□⑧□ |③-④-|
□④⑥□ |⑤-⑥-|
□⑦②□ |⑦-⑧-|
5
①□③□ |①-②-|
□④□□ |③-④-|
⑤②⑤□ |⑤---|
③□①□ |⑥-⑦-|

⑥⑦□□
□□□□
□□□□
□□□□
6
□□①□ |①-②-|
□□□□ |③-④-|
□□④□ |⑤-⑥-|
□②□③ |⑦-⑧-|

□□□⑥
□⑤⑧□
□□□□
□⑦□□
7
①□③□ |①-②-|
⑦④⑥□ |③-④-|
⑤②⑤□ |⑤---|
③□①□ |⑥-⑦-|
8
□①④③ |①-②-|
⑥②⑤② |③-④-|
□③④① |⑤-⑥-|
⑧⑧⑦□ |⑦-⑧-|
9
⑤⑥③③ |①-②-|
□②④② |③-④-|
①④①□ |----|
□□□□ |⑤-⑥-|
10
□□①□ |①-②③|
⑥⑩③④ |④-⑤-|
□⑦⑤⑧ |⑥-⑦⑧|
□②⑨□ |⑨-⑩-|
11
□③□① |①-②-|
□□④□ |③-④-|
□⑤②⑤ |⑤-⑥-|
⑥①□③ |⑦-⑧-|

□□⑧⑦
□□□□
□□□□
□□□□
12
□①⑥⑥ |①-②③|
④③⑩□ |④-⑤-|
⑧⑤⑦□ |⑥-⑦⑧|
□⑨②□ |⑨-⑩-|
13
①□③□ |①-②-|
□④□□ |③-④-|
⑤②⑤□ |⑤-⑥-|
③□①⑥ |⑦-⑧-|

⑦⑧□□
□□□□
□□□□
□□□□
14
□□①□ |①-②③|
□□□□ |④-⑤-|
□□⑤□ |⑥-⑦⑧|
□②③④ |⑨-⑩-|

□□□⑦
□⑥⑩□
⑧□□□
□⑨□□
15
①□③□ |①-②-|
□④□□ |③-④-|
⑤②⑤□ |⑤-⑥-|
③□①□ |⑦-⑧-|

⑥□□□
⑧□⑦□
□□□□
□□□□
16
□①④③ |①-②-|
⑥②⑤② |③-④-|
□③④① |⑤-⑥-|
⑧⑧⑦□ |⑦-⑧-|
17
□□③③ |①-②-|
□②④② |③-④-|
①④①□ |--⑤-|
□□□□ |⑥-⑦-|

□□□□
⑤□□⑥
□□□□
□⑦□□
18
①①①③ |①--②|
□①□③ |--③-|
①①①□ |④--⑤|
□□□② |--⑥-|

⑥□⑤□
⑥□□□
□□□□
④④□□
19
□□□□ |①---|
□③②□ |②-③-|
□②③□ |--④-|
□□①① |⑤-⑥-|

□□□□
⑤□□④
□□□□
□□⑥□
20
③①①① |①--②|
③□①□ |--③-|
□①①① |④--⑤|
②□□□ |--⑥-|

□⑤□⑥
□□□⑥
□□□□
□□④④
21
□⑥□□ |①---|
□②③□ |②-③-|
④③②⑤ |--④-|
①①□□ |⑤-⑥-|
22
□□□② |①--②|
①①①□ |--③-|
□①□③ |④--⑤|
①①①③ |--⑥-|

④④□□
□□□□
⑥□□□
⑥□⑤□
23
□□①① |①---|
□②③□ |②-③-|
□③②□ |--④-|
□□□□ |⑤-⑥-|

□□⑥□
□□□□
⑤□□④
□□□□
24
②□□□ |①--②|
□①①① |--③-|
③□①□ |④--⑤|
③①①① |--⑥-|

□□④④
□□□□
□□□⑥
□⑤□⑥
25
①①□□ |①---|
□③②□ |②-③-|
□②③□ |--④-|
□□□□ |⑤-⑥⑦|

④⑥⑦④
□□□□
□□□□
⑤□□⑤
26
□□□□ |①②③④|
③⑦⑧④ |⑤⑥⑦⑧|
①□□② |-⑨⑩⑪|
□⑤⑥□ |-⑫⑬⑭|

□⑨□⑫
⑬□□□
□□□□
⑪□⑭⑩
27
①③③□ |①---|
□③□③ |②-③-|
②②□□ |--④⑤|
②②□□ |⑥⑦⑧⑨|

□□□□
⑤□④□
⑨□⑧⑥
□⑦□□
28
□②□① |①-②③|
⑩□③⑨ |④⑤-⑥|
⑧④□⑦ |⑦⑧⑨⑩|
⑥□⑤□ |-⑪⑫⑬|

□□⑪⑬
□□□□
□□□□
□⑫□□
29
⑤⑤□□ |①②③④|
⑤④⑤⑥ |⑤-⑥-|
⑤⑤③⑥ |--⑦⑧|
①□⑥② |⑨-⑩⑪|

□□□⑦
□⑩⑪□
□□⑨□
□⑧□□
30
⑤⑦⑤④ |①②③④|
①⑦⑦⑥ |⑤-⑥-|
⑤⑦⑦② |⑦---|
③⑥⑦⑥ |⑧-⑨⑩|

□□□⑩
⑨□□□
□□□□
⑧□□□
31
①④④□ |①-②-|
□②□③ |③-④-|
①□②□ |--⑤⑥|
□④④③ |⑦-⑧-|

⑤□□⑧
□⑥□□
□□⑦□
□□□□
32
□③□□ |①-②-|
□□□□ |③-④-|
□□□□ |⑤-⑥-|
□②④① |⑦-⑧-|

□□⑤□
□⑦□⑥
□□□□
□□□⑧
33
□③□□ |①-②-|
□④③□ |③-④-|
①①④③ |⑤-⑥-|
②②□□ |⑦-⑧-|

⑥□⑤□
⑦□□⑤
⑥⑦□□
⑧□⑧□
34
□④③② |①-②③|
□□⑤□ |④-⑤-|
□□①⑤ |⑥-⑦⑧|
□①□□ |⑨-⑩-|

⑥□□□
⑩⑥□□
⑦⑧⑨□
□□□□
35
□①□① |①-②-|
□□②② |③-④-|
□③□③ |⑤-⑥⑦|
□□④④ |⑧-⑨-|

⑥⑦⑧□
□□□□
⑨□□□
⑤⑨□□
36
□□□① |①-②③|
□□①⑤ |④-⑤-|
□④③② |⑥-⑦⑧|
□□□□ |⑨-⑩-|

□⑥□□
⑥□□□
□□□⑩
⑦⑧⑨□
37
①□①□ |①-②-|
②②□□ |③-④-|
③□③□ |⑤-⑥⑦|
④④□□ |⑧-⑨-|

□⑧⑦⑥
□□□□
□□□⑨
□□⑨⑤
38
①□⑥⑩ |①-②③|
⑤①⑩⑥ |④-⑤-|
②③④□ |⑥-⑦⑧|
□⑨⑧⑦ |⑨-⑩-|
39
①④③□ |①-②-|
□①□□ |③-④-|
④□□③ |--⑤-|
②□□□ |⑥-⑦-|

□□□□
⑦⑥⑤□
□□⑥□
□⑦□⑤
40
③①③□ |①-②-|
□□□① |③-④-|
②④□□ |⑤-⑥-|
□□②④ |⑦-⑧-|

⑧□□□
⑧⑥⑦□
⑦□⑤⑥
⑤□□□
41
□④③① |①-②-|
□□□① |③-④-|
□③④□ |--⑤-|
□②②□ |⑥-⑦-|

□□□□
⑤□□⑥
□□□□
□⑦□□
42
①①①⑤ |①-②③|
③①②⑤ |④-⑤-|
①①①□ |⑥-⑦⑧|
□□④□ |⑨-⑩-|

⑩⑧⑦□
⑩□□□
□□⑨□
⑥⑥□□
43
□□□□ |①-②-|
□④③□ |③-④-|
□③④□ |--⑤-|
②□①① |⑥-⑦-|

□□□□
⑥□□⑤
□□□□
□□⑦□
44
⑤①①① |①-②③|
⑤②①③ |④-⑤-|
□①①① |⑥-⑦⑧|
□④□□ |⑨-⑩-|

□⑦⑧⑩
□□□⑩
□⑨□□
□□⑥⑥
45
□⑦□□ |①-②-|
□③④□ |③-④-|
⑤④③⑥ |--⑤-|
①①□② |⑥-⑦-|
46
□□④□ |①-②③|
①①①□ |④-⑤-|
③①②⑤ |⑥-⑦⑧|
①①①⑤ |⑨-⑩-|

⑥⑥□□
□□⑨□
⑩□□□
⑩⑧⑦□
47
②□①① |①-②-|
□③④□ |③-④-|
□④③□ |--⑤-|
□□□□ |⑥-⑦-|

□□⑦□
□□□□
⑥□□⑤
□□□□
48
□④□□ |①-②③|
□①①① |④-⑤-|
⑤②①③ |⑥-⑦⑧|
⑤①①① |⑨-⑩-|

□□⑥⑥
□⑨□□
□□□⑩
□⑦⑧⑩
49
①①□② |①-②-|
□④③□ |③-④-|
□③④□
□□□□
50
□④④□ |----|
□□□□ |----|
⑤□□□ |---①②③|
①②③□ |④-⑤-|
51
⑦⑤□① |①-②-|
⑤⑦③□ |③-④-|
□③③③ |⑤-⑥-|
④⑧⑥② |⑦-⑧-|
52
□④□□ |①-②-|
□□①③ |③-④-|
□□③① |⑤-⑥-|
②□□□ |⑦-⑧-|

□□⑥□
□□⑧□
⑤⑦□□
⑦⑤□□
53
□□□① |①-②-|
④□□□ |③-④-|
□□□□ |⑤-⑥-|
□③□② |⑦-⑧-|

□□□⑦
□□⑤□
□⑧⑦⑤
⑥□□□
54
①⑦□□ |①-②-|
⑤②⑦⑤ |③-④-|
③□□□ |⑤-⑥-|
⑧④⑥□ |⑦-⑧-|
55
⑦⑤④① |①-②-|
⑤⑦□□ |③-④-|
□□③□ |⑤-⑥-|
□⑧⑥② |⑦-⑧-|
56
□④□□ |①-②-|
□□①③ |③-④-|
□□③① |⑤-⑥-|
②□□□ |⑦-⑧-|

□□⑥□
□□⑧□
⑤⑦□□
⑦⑤□□
57
□□□① |①-②-|
④□□□ |③-④-|
□□□□ |⑤-⑥-|
□③□② |⑦-⑧-|

□□□⑦
□□⑤□
□⑧⑦⑤
⑥□□□
58
①①①⑧ |①-②-|
③③③⑥ |③-④-|
⑤⑤⑤④ |⑤-⑥-|
⑦⑦⑦② |⑦-⑧-|
59
①□□□ |①---|
②②②□ |②---|
□②②② |③-④-|
□□□① |⑤-⑥-|

⑤⑤③③
□□□③
□□□□
⑥⑥④□
60
□□□④ |①-②-|
□③②□ |③-④-|
□□④① |⑤-⑥-|
□□□② |⑦-⑧-|

⑥□□□
□⑧□⑤
□⑥□⑦
⑧□□□
61
□②②□ |①-②-|
④⑧⑤⑦ |③-④-|
③⑥⑦⑤ |⑤-⑥-|
⑧①□□ |⑦-⑧-|
62
□②②□ |①-②-|
①⑧④□ |③-④-|
□⑤⑦③ |⑤-⑥-|
⑥⑤④③ |⑦-⑧-|
63
□□□□ |①-②-|
③□②□ |③-④-|
③③④① |⑤-⑥-|
□□①① |⑦-⑧-|

⑦⑦⑤⑤
□□□⑤
□□□⑥
⑧⑧□□
64
□□□④ |①-②-|
③□②□ |③-④-|
□①④□ |⑤-⑥-|
□□□② |⑦-⑧-|

⑥□⑤□
□⑧□□
□⑥□⑦
⑧□□□
65
□②②□ |①-②-|
□□④□ |③-④-|
□□①□ |⑤-⑥-|
□□□③ |⑦-⑧-|

⑤⑧⑦□
□⑥□□
⑧□□⑦
□□□□
66
②□□② |①-②-|
□④④□ |③-④-|
□③①□ |⑤-⑥-|
④□□④ |⑦-⑧-|

□⑦⑤□
⑥□□⑥
⑧⑧⑧⑧
□⑥⑥□
67
□□□□ |----|
□□□□ |----|
□□□□ |----|
□□□□ |----|
最終更新:2022年10月19日 01:56