アットウィキロゴ
見えない星の渡り方
Capchii feat. ことの

BASIC

Level: 3
BPM: 178
Notes: 283

1
口口口口 |(178)----|
口口口口 |----|
口口口口 |----|
口口口口 |----|
2
口口口口 |----|
口口口口 |----|
口口口口 |----|
口口口口 |----|
3
①口口口 |①---|
口②口口 |②---|
口口③口 |③---|
口口口口 |----|
4
口口口口 |①---|
口口口口 |②---|
②口口口 |----|
①口口口 |----|
5
口口口① |①---|
口口②口 |②---|
口③口口 |③---|
口口口口 |----|
6
口口口口 |①---|
口口口口 |②---|
口口口② |----|
口口口① |----|
7
①口口口 |①---|
口②口口 |②---|
口口③口 |③---|
口口口口 |----|
8
口口口口 |①---|
口口口口 |②---|
②口口口 |----|
①口口口 |----|
9
口口①① |①---|
口口②② |----|
口口口口 |②---|
口口口口 |----|
10
口口口口 |①---|
口口口口 |----|
口口①① |②---|
口口②② |----|
11
口口口口 |①---|
口口③口 |②---|
口②口口 |③---|
①口口口 |----|
12
①口口口 |①---|
②口口口 |②---|
口口口口 |----|
口口口口 |----|
13
口口口口 |①---|
口③口口 |②---|
口口②口 |③---|
口口口① |----|
14
口口口① |①---|
口口口② |②---|
口口口口 |----|
口口口口 |----|
15
口①①口 |①---|
口②②口 |----|
口口口口 |②---|
口口口口 |----|
16
口口口口 |①---|
口口口口 |----|
口①①口 |②---|
口②②口 |----|
17
口口口口 |①---|
①口口① |----|
①口口① |----|
口口口口 |----|
18
口口口口 |----|
口口口口 |----|
口口口口 |----|
口口口口 |----|
19
①口①口 |①---|
口口口口 |----|
口口口口 |----|
口口口口

口口口口 |(356)②---|
口②口② |----|
口口口口 |----|
口口口口 |(178)----|
20
口口口口 |①---|
口口口口 |----|
①口①口 |----|
口口口口
21
口口口口 |①---|
口口口口 |----|
口口口口 |----|
口①口①
22
口口口口 |①---|
口①①口 |----|
口①①口 |----|
口口口口 |----|
23
口口口口 |----|
口口口口 |----|
口口口口 |----|
口口口口 |----|
24
①口口① |----|
口口口口 |①---|
口②②口 |----|
口口口口 |--②-|
25
口口口口 |--①-|
口①①口 |----|
口口口口 |----|
口口口口 |----|
26
口口口口 |①---|
口②②口 |----|
口③③口 |--②-|
①口口① |--③-|
27
口口口口 |----|
口口口口 |----|
口口口口 |----|
口口口口 |----|
28
口②②口 |①---|
口口口口 |②---|
③口口③ |----|
口①①口 |--③-|
29
口口口口 |--①-|
①口口① |----|
口口口口 |----|
口口口口 |----|
30
口口口口 |①---|
口口口口 |----|
口口口口 |----|
口①①口 |----|
31
口口口口 |①---|
口②口④ |②---|
①口③口 |③---|
口口口口 |④---|
32
口口③③ |①---|
口口口口 |②---|
口②口口 |③---|
①口口口 |----|
33
口口口口 |①---|
①①口口 |----|
口口口口 |②---|
口口②② |----|
34
②②口口 |①---|
口口口口 |----|
①①口口 |②---|
口口口口 |----|
35
口口口口 |①---|
口②①① |----|
口口③口 |②---|
口口口口 |③---|
36
口口口口 |①---|
口口口口 |----|
口口口口 |②---|
①①②② |----|
37
口口口口 |①---|
①①②② |----|
口口口口 |②---|
口口口口 |----|
38
①①①① |①---|
口口口口 |----|
口口口口 |----|
口口口口 |----|
39
口口口口 |----|
口口口口 |----|
口口口口 |----|
口①口口 |①---|
40
口口口口 |①---|
①口口口 |----|
口口口② |②---|
口口口口 |----|
41
口口口口 |①---|
口口口口 |----|
口口口口 |----|
①口②口 |②---|
42
口口口口 |①---|
口口口① |----|
②口口口 |②---|
口口口口 |----|
43
口口口口 |①---|
口口口口 |----|
口②口口 |②---|
口口口① |----|
44
口口口口 |①---|
口①②口 |----|
口口口口 |②---|
口口口口 |----|
45
②口口口 |①---|
口口口口 |----|
口口①口 |②---|
口口口口 |----|
46
口①②口 |①---|
口口口口 |----|
口口口口 |②---|
口口口口 |----|
47
口口口① |①---|
口口口口 |----|
口口口口 |----|
口②口口 |②---|
48
口口口口 |①---|
①①口口 |----|
口口②② |②---|
口口口口 |----|
49
口口口口 |①---|
口口口口 |----|
②②口口 |②---|
①①口口 |----|
50
口口口口 |①---|
口口①① |----|
②②口口 |②---|
口口口口 |----|
51
口口口口 |①---|
②口口口 |----|
口口口口 |②---|
口口①① |----|
52
口口口① |①---|
口口②口 |----|
口口口口 |②---|
口口口口 |----|
53
口口口口 |①---|
口口口口 |----|
口①口口 |②---|
②口口口 |----|
54
口口口口 |①---|
口②②口 |----|
口①①口 |②---|
口口口口 |----|
55
口①①口 |①---|
口口口口 |----|
口口口口 |----|
口口口口 |----|
56
①②口口 |①---|
口口④③ |②---|
口口口口 |③---|
口口口口 |④---|
57
口口口口 |①---|
口口口口 |②---|
①②口口 |③---|
口口④③ |④---|
58
口口口口 |①---|
口口口口 |②---|
口口④③ |③---|
①②口口 |④---|
59
口口④③ |①---|
①②口口 |②---|
口口口口 |③---|
口口口口 |④---|
60
①口口口 |①---|
②口口口 |②---|
口口口④ |③---|
口口口③ |④---|
61
口①口口 |①---|
口②口口 |②---|
口口④口 |③---|
口口③口 |④---|
62
口口口③ |①---|
口口口④ |②---|
②口口口 |③---|
①口口口 |④---|
63
口口③口 |①---|
口口④口 |②---|
口②口口 |③---|
口①口口 |④---|
64
①口口口 |①---|
口②口口 |②---|
口口③口 |③---|
口口口④ |④---|
65
口口口① |①---|
口口②口 |②---|
口③口口 |③---|
④口口口 |④---|
66
口①②口 |①---|
③口口④ |②---|
口口口口 |③---|
口口口口 |④---|
67
口口口口 |①---|
口口口口 |②---|
①口口② |③---|
口③④口 |④---|
68
①②口口 |①---|
口口④③ |②---|
口口口口 |③---|
口口口口 |④---|
69
口口口口 |①---|
口口口口 |②---|
①②口口 |③---|
口口④③ |④---|
70
口口口口 |①---|
口口口口 |②---|
口口④③ |③---|
①②口口 |④---|
71
口口④③ |①---|
①②口口 |②---|
口口口口 |③---|
口口口口 |④---|
72
①口口口 |①---|
口②口口 |②---|
口口③口 |③---|
口口口④ |④---|
73
口口口口 |①---|
③口口口 |②---|
②口口口 |③---|
①口口口 |----|
74
口口口① |①---|
口口②口 |②---|
口③口口 |③---|
④口口口 |④---|
75
口口口口 |①---|
口口口③ |②---|
口口口② |③---|
口口口① |----|
76
①口口口 |①---|
口②口口 |②---|
口口③口 |③---|
口口口④ |④---|
77
口口口口 |①---|
③口口口 |②---|
②口口口 |③---|
①口口口 |----|
78
口口①① |①---|
口②③③ |②---|
口④口口 |③---|
口口口口 |④---|
79
口口口口 |①---|
口口口口 |②---|
口口①① |③---|
口②③③ |----|
80
口口口④ |①---|
口口③口 |②---|
口②口口 |③---|
①口口口 |④---|
81
①口口口 |①---|
②口口口 |②---|
③口口口 |③---|
口口口口 |----|
82
口①①口 |①---|
口②②口 |----|
口口口口 |②---|
口口口口 |----|
83
口口口口 |①---|
口口口口 |----|
口①①口 |②---|
口②②口 |----|
84
口口口④ |①---|
口口③口 |②---|
口②口口 |③---|
①口口口 |④---|
85
①口口口 |①---|
②口口口 |②---|
③口口口 |③---|
口口口口 |----|
86
口口①口 |①---|
口②口口 |②---|
口口③口 |③---|
口④口口 |④---|
87
口口口① |①---|
②口口口 |②---|
口口口③ |③---|
④口口口 |④---|
88
口口口口 |①---|
口①①口 |----|
口①①口 |----|
口口口口 |----|
89
口口口口 |----|
口口口口 |----|
口口口口 |----|
口口口口 |----|

accuracy: 100%
最終更新:2023年10月17日 17:41