アットウィキロゴ
見えない星の渡り方
Capchii feat. ことの

ADVANCED

Level: 7
BPM: 178
Notes: 466

1
口口口口 |(178)----|
口口口口 |----|
口口口口 |----|
口口口口 |----|
2
口口口口 |----|
口口口口 |----|
口口口口 |----|
口口口口 |----|
3
⑤口口④ |①---|
③③口口 |②---|
②②口口 |③---|
①①口口 |④-⑤-|
4
口④口口 |①-②-|
口口③口 |③-④-|
口②口口 |----|
口口①口 |----|
5
④口口⑤ |①---|
口口③③ |②---|
口口②② |③---|
口口①① |④-⑤-|
6
口口③口 |--①-|
口②口口 |②-③-|
口口①口 |----|
口口口口 |----|
7
⑤口口④ |①---|
③③口口 |②---|
②②口口 |③---|
①①口口 |④-⑤-|
8
口④口口 |①-②-|
口口③口 |③-④-|
口②口口 |----|
口口①⑤ |⑤---|
9
口②①口 |①---|
⑤口口④ |②---|
口口口口 |③---|
③口口口 |④-⑤-|
10
口口口口 |--①-|
口口③口 |②-③-|
口②口口 |----|
口口①口 |----|
11
⑥口口⑤ |①---|
④③②口 |②-③-|
口口口口 |④---|
①①口口 |⑤-⑥-|
12
口④口口 |①-②-|
口口③口 |③-④-|
口②口口 |----|
口口①口 |----|
13
④口口⑤ |①---|
口口③③ |②---|
口口②② |③---|
口口①① |④-⑤-|
14
口口③口 |--①-|
口②口④ |②-③-|
口口①口 |----|
口口口口 |--④-|
15
③③口口 |①---|
⑤⑤口口 |②-③-|
④④②口 |--④-|
①①口口 |--⑤-|
16
口口口口 |--①-|
口口③③ |----|
口口②② |②---|
①①口口 |③---|
17
口口①① |①---|
口口口口 |----|
口口口口 |----|
口口口口 |----|
18
①口口口 |----|
口口口口 |----|
口口口口 |----|
口口②口 |①-②-|
19
口口口口 |①---|
口口④口 |②-③-|
③口口② |--④-|
口①口口

口口口口 |(356)⑤---|
口⑤口口 |----|
口口口口 |----|
口⑥口口 |(178)--⑥-|
20
口口口口 |①---|
口④口口 |②-③-|
②口口③ |--④-|
口口①口
21
口口口口 |①---|
口口①口 |--②-|
口口口口 |----|
②口口②
22
①口口① |①---|
口口口口 |----|
口口口口 |----|
口口口口 |----|
23
口口口口 |①-②-|
⑤⑥⑦⑧ |③-④-|
①②③④ |⑤-⑥-|
口口口口 |⑦-⑧-|
24
②口口② |①---|
口③口口 |②---|
口③口口 |----|
口①①口 |--③-|
25
口口口口 |--①-|
②口①③ |----|
口口①口 |②---|
口口口口 |③---|
26
口③④口 |①---|
口③④口 |----|
口口口② |②-③-|
口①①口 |--④-|
27
①口口③ |----|
口④口口 |①-②-|
口②②口 |③---|
口口口口 |④---|
28
口⑤口口 |①---|
②⑤口② |②---|
口③口口 |③---|
①口④① |④-⑤-|
29
口口①口 |--①-|
口口①口 |----|
②口口③ |②---|
口口口口 |③---|
30
①口口① |①---|
口②口口 |②---|
口口③口 |③---|
口④口口 |④---|
31
口口①口 |①---|
②口口口 |②---|
口口口③ |③---|
口④口口 |④---|
32
③口口③ |①---|
口口④口 |②---|
口②②口 |③---|
⑤⑤①口 |④-⑤-|
33
②口②口 |--①-|
口③口③ |----|
口口口口 |②---|
口口①① |③---|
34
④①④① |①---|
口⑤口⑤ |②-③-|
口口③③ |--④-|
②口口口 |--⑤-|
35
口①口口 |----|
口口②口 |----|
口口口口 |①---|
口口口口 |②---|
36
口口③⑤ |①---|
口④口⑤ |②---|
②②口口 |③---|
口口①① |④-⑤-|
37
①口口口 |--①-|
①口口口 |----|
口口②口 |②---|
口③口口 |③---|
38
口口口④ |①---|
口口口③ |②---|
口口口② |③---|
口口口① |④---|
39
④口口口 |①---|
③口口口 |②---|
②口口口 |③---|
①口口口 |④---|
40
口④口口 |①---|
口②口口 |--②-|
口口①⑤ |③---|
口口口③ |④-⑤-|
41
口口口① |----|
口口口口 |----|
口口口口 |----|
口口口口 |①---|
42
口口④口 |①---|
口口②口 |--②-|
⑤①口口 |③---|
③口口口 |④-⑤-|
43
口口口口 |----|
口口口口 |----|
口口②② |①---|
口口①① |②---|
44
①①口③ |①---|
②②口④ |②-③-|
口口口⑤ |--④-|
口口口口 |--⑤-|
45
口②②口 |----|
①口口口 |----|
①口口口 |①---|
口口口口 |②---|
46
口口口口 |①---|
口④④① |②---|
口③③① |③---|
口②②口 |④---|
47
①口口口 |----|
口口口口 |----|
口口口口 |----|
口口口口 |①---|
48
口④口口 |①---|
口②口口 |--②-|
口①①⑤ |③---|
口口口③ |④-⑤-|
49
口口口② |----|
口口①口 |----|
口口口口 |①---|
口口口口 |②---|
50
④④⑤⑤ |①---|
②口口口 |②-③-|
口①①口 |--④-|
口口③口 |--⑤-|
51
口口口口 |----|
口口口口 |----|
口②②口 |①---|
①①口口 |②---|
52
②②③③ |①---|
⑤口①① |②-③-|
⑤口口口 |--④-|
口④④口 |--⑤-|
53
口口口口 |----|
口口口① |①---|
口②②① |②---|
③口口③ |③---|
54
口①①口 |①---|
口②②口 |----|
口口口口 |②---|
口③③口 |--③-|
55
口口口口 |----|
口口口口 |----|
口口口口 |----|
口口口口 |----|
56
①⑦⑦口 |①-②-|
口⑥⑥② |③-④-|
③⑤⑤口 |⑤--⑥|
口口口④ |--⑦-|
57
口口口① |----|
口口口③ |①---|
口口口口 |②---|
②口口口 |③---|
58
口口④口 |①-②-|
⑦③口⑦ |③-④-|
⑥口②⑥ |⑤--⑥|
⑤①口⑤ |--⑦-|
59
口口①口 |----|
口口③口 |①---|
口口口口 |②---|
口②口口 |③---|
60
①⑦⑦口 |①-②-|
口⑥⑥② |③-④-|
③⑤⑤口 |⑤--⑥|
口口口④ |--⑦-|
61
口口口① |----|
口口口③ |①---|
口口口口 |②---|
②口口口 |③---|
62
①①④④ |①--②|
⑤⑤口口 |--③-|
口③⑥⑥ |④--⑤|
口口②口 |--⑥-|
63
口口口口 |----|
口口③① |①---|
口口口口 |②---|
口②口口 |③---|
64
①⑦⑦口 |①-②-|
口⑥⑥② |③-④-|
③⑤⑤口 |⑤--⑥|
口口口④ |--⑦-|
65
口口口① |----|
口口口③ |①---|
口口口口 |②---|
②口口口 |③---|
66
①①口④ |①--②|
③口⑤口 |--③-|
③⑥口口 |--④-|
口口②② |⑤-⑥-|
67
口口③口 |----|
口口口口 |①---|
口口②口 |②---|
口①口口 |③---|
68
①⑦⑦口 |①-②-|
口⑥⑥② |③-④-|
③⑤⑤口 |⑤--⑥|
口口口④ |--⑦-|
69
口口口① |----|
口口口③ |①---|
口口口口 |②---|
②口口口 |③---|
70
①①④④ |①--②|
⑤⑤口口 |--③-|
口③⑥⑥ |④--⑤|
口口②口 |--⑥-|
71
口口口③ |----|
口口②口 |①---|
口①口口 |②---|
口口口口 |③---|
72
⑤口口④ |①---|
③③口口 |②---|
②②口口 |③---|
①①口口 |④-⑤-|
73
口③口口 |--①-|
口口②口 |②-③-|
口①口口 |----|
口口口口 |----|
74
④口口⑤ |①---|
口口③③ |②---|
口口②② |③---|
口口①① |④-⑤-|
75
口口③口 |--①-|
口②口口 |②-③-|
口口①口 |----|
口口口口 |----|
76
⑤口口④ |①---|
③③口口 |②---|
②②口口 |③---|
①①口口 |④-⑤-|
77
口③口口 |--①-|
口口②口 |②-③-|
口①口口 |----|
口口口④ |④---|
78
口②①口 |①---|
⑤口口④ |②---|
口口口口 |③---|
③口口口 |④-⑤-|
79
口口口口 |--①-|
口口③口 |②-③-|
口②口口 |----|
口口①口 |----|
80
⑥口口⑤ |①---|
④③②口 |②-③-|
口口口口 |④---|
①①口口 |⑤-⑥-|
81
口④口口 |①-②-|
⑤⑤③口 |③-④-|
口②口口 |----|
口口①口 |⑤---|
82
口口①① |①---|
口口口口 |②-③-|
②口口③
②口口③

⑤口口⑤
口口口口
口口口口 |--④-|
口④④口 |--⑤-|
83
口口口口 |----|
口口②口 |----|
口①口口 |①---|
口口口口 |②---|
84
①①口口 |①---|
④④口口 |②-③-|
⑤⑤②口 |--④-|
③③口口 |--⑤-|
85
②②口口 |--①-|
口口④④ |②---|
口口③③ |③---|
口口①① |④---|
86
口口①① |①---|
口口口口 |----|
口口口口 |----|
口口口口 |----|
87
①口口口 |----|
口②口口 |----|
口口口口 |①---|
口口口口 |②---|
88
口口口口 |①---|
口口口口 |----|
口口①口 |----|
口口口口 |----|
89
口口口口 |----|
口口口口 |----|
口口口口 |----|
口口口口 |----|

accuracy: 100%
最終更新:2023年10月17日 17:41