アットウィキロゴ
見えない星の渡り方
Capchii feat. ことの

EXTREME

Level: 9.7
BPM: 178
Notes: 811

1
口口口口 |(178)----|
口口口口 |----|
口口口口 |----|
口口口口 |----|
2
口口口口 |----|
口口口口 |----|
口口口口 |----|
口口口口 |----|
3
③口口① |①---|
口①口② |②---|
口②④口 |③---|
⑤口口③ |④-⑤-|
4
口①①口 |①-②-|
③口口口 |③-④-|
③口口④ |----|
口②②口 |----|
5
①①口口 |①---|
口②②⑤ |②---|
口口③③ |③---|
④口口⑤ |④-⑤-|
6
口①口口 |--①-|
①口②口 |②-③-|
口②口③ |----|
口口③口 |----|
7
口①①① |①---|
②②②⑤ |②---|
口③③③ |③---|
④口口口 |④-⑤-|
8
口③口口 |①-②-|
口口口口 |③-④-|
①口口口 |----|
⑤口④② |⑤---|
9
口④④④ |①---|
口口②④ |②---|
③①⑤④ |③---|
口③口口 |④-⑤-|
10
口口口口 |①-②-|
口①②口 |③-④-|
口③口口 |----|
口口口④ |----|
11
①①①① |①---|
口口口口 |②-③-|
口②口口
口口③口

⑥口口口
口口口口
口口⑤口 |④---|
口④口口 |⑤-⑥-|
12
口口④口 |①-②-|
口口③① |③-④-|
口④口④ |----|
②口口口 |----|
13
④①③① |①---|
口②口口 |②---|
口口①③ |③---|
②口②⑤ |④-⑤-|
14
④口口① |--①-|
③口③口 |②-③-|
口②口口 |----|
口③口口 |--④-|
15
口④④③ |①---|
口口口口 |②-③-|
口口口口 |--④-|
②⑤⑤① |--⑤-|
16
③口④口 |--①-|
①口口② |②---|
④口③口 |③---|
①口口② |④---|
17
口①口口 |①---|
①①①口 |----|
口①口口 |----|
口口口口 |----|
18
口口口① |----|
口口口口 |----|
口口口口 |----|
②口口口 |①-②-|
19
口口口口 |①---|
④口口口 |②-③-|
②③口口 |--④-|
口①口口

口口口口 |(356)⑤---|
口⑤口口 |----|
口口口口 |----|
口口口⑥ |(178)--⑥-|
20
口口口口 |①---|
口口口④ |②-③-|
口口③② |--④-|
口口①口
21
口口口口 |①---|
口口①口 |--②-|
口口口口 |----|
②口口口
22
①②③口 |①-②-③-|
⑦⑧⑨口 |④-⑤-⑥-|
口⑥⑤④ |⑦-⑧-⑨-|
口⑫⑪⑩ |⑩-⑪-⑫-|
23
①②③④ |①②③④|
⑨⑩⑪⑫ |⑤⑥⑦⑧|
⑤⑥⑦⑧ |⑨⑩⑪⑫|
⑬⑭⑮⑯ |⑬⑭⑮⑯|
24
③①②⑥ |①②③④|
⑪口⑦口 |⑤---|
⑤⑧④⑤ |⑥⑦⑧⑨|
⑨⑪口⑩ |⑩-⑪-|
25
⑥②口⑤ |--①-|
口⑦口① |----|
④口⑧③ |②③④⑤|
口口①⑨ |⑥⑦⑧⑨|
26
⑦⑤⑥⑧ |①---|
口口④口 |②③④⑤|
⑦③口⑧ |⑥-⑦-|
①①②口 |--⑧-|
27
口口口口 |--①②|
口口③口 |③-④-|
口②口口
①口④口

口口⑤⑨
⑩⑥口口
口口⑦⑪ |⑤⑥⑦⑧|
⑫⑧口口 |⑨⑩⑪⑫|
28
②⑤口⑥ |①---|
口④口① |②---|
②口口⑥ |③-④-|
口③口① |⑤-⑥-|
29
⑤⑥⑦口 |--①-|
①④③② |--②③|
⑤⑥⑦口 |④-⑤-|
①口口口 |⑥-⑦-|
30
口口口② |①---|
③③口② |②-③-|
⑤⑤⑥④ |④-⑤-|
①①⑥④ |⑥---|
31
③①口② |①②③④|
⑤口④口 |⑤-⑥-|
口口口口
⑤口口⑥

口⑪⑫⑬
口⑩口⑭
口⑨⑧⑮ |⑦---|
口⑦口口 |⑧⑨⑩⑪⑫⑬⑭⑮|
32
⑤口口口 |①-②-③-|
⑥口④口 |④-⑤-⑥-|
③口口口
②口①口

口口口口
口⑧口口
口口⑧口 |⑦-⑧-|
⑨⑦⑨口 |--⑨-|
33
口①④① |--①-|
⑤口口④ |--②-|
口⑥口口 |③-④-|
口③⑦② |⑤⑥⑦-|
34
⑤①⑤① |①---|
口②④口 |②-③-|
口口③③ |--④-|
②⑥⑥④ |⑤-⑥-|
35
口①⑦④ |--①-|
⑤⑥口⑦ |②-③-|
口口②口 |④-⑤⑥|
③口口口 |--⑦-|
36
口⑦⑦口 |①---|
⑦④口⑦ |②-③-|
③②⑤① |--④⑤|
②③①⑥ |⑥-⑦-|
37
②口⑦③ |①-②-|
⑦口口口 |③-④-|
口②⑥⑤ |⑤⑥-⑦|
④⑧①⑧ |--⑧-|
38
口①口③ |①-②-|
口②①口 |③-④-|
④①口口
口口①口

⑥⑧⑦口
口口口口
口口⑤口 |⑤-⑥-|
口口口口 |⑦-⑧-|
39
⑬⑭⑮⑯ |①②③④|
⑨⑩⑪⑫ |⑤⑥⑦⑧|
⑤⑥⑦⑧ |⑨⑩⑪⑫|
①②③④ |⑬⑭⑮⑯|
40
口口口④ |①---|
②⑤口口 |--②-|
口口③口 |③---|
口①口口 |④-⑤-|
41
①口口口 |----|
口口口口 |----|
口口口口 |----|
口口口口 |①---|
42
口口口① |①---|
口口③口 |--②-|
口②口口 |③---|
④口口⑤ |④-⑤-|
43
口②口口 |----|
①口口口 |----|
口口口口 |①---|
口口口口 |②---|
44
口口⑤④ |①---|
口口①口 |②-③-|
口②④⑤ |--④-|
口口③口 |--⑤-|
45
口②②口 |----|
①口口口 |----|
①口口口 |①---|
口口口口 |②---|
46
②口口口 |①---|
口③④① |②---|
口②口① |③---|
口口③④ |④---|
47
①口口口 |----|
口口口口 |----|
口口口口 |----|
口口口口 |①---|
48
口①①③ |①---|
口②②口 |--②-|
⑤④④口 |③-④-|
口⑥⑥口 |⑤-⑥-|
49
口口口口 |----|
②口口口 |----|
口①①口 |①---|
口口口口 |②---|
50
口①①② |①---|
口③③口 |②-③-|
④④④口 |--④-|
口⑤⑤⑤ |--⑤-|
51
口①⑦⑤ |--①②|
⑥④④② |③---|
口口⑦⑤ |④--⑤|
③口口口 |⑥-⑦-|
52
②口口⑤ |①---|
口④④口 |②-③-|
口③口口 |④-⑤-|
⑥①①口 |--⑥-|
53
口口口④ |①---|
口③③口 |②---|
口②口口 |③---|
口口①① |④---|
54
①③②口 |①---|
⑤口④口 |②---|
口④口⑤ |③-④-|
口②③① |--⑤-|
55
⑤口口口 |----|
口②口④ |----|
①口③口 |①②③④|
口口口口 |--⑤-|
56
⑨口口⑨ |①-②③|
②⑧④⑦ |-④⑤-|
口⑥⑦口 |⑥--⑦|
③⑥⑤① |⑧-⑨-|
57
口口⑥口 |--①②|
⑤口口⑥ |③④⑤-|
③⑦⑨④ |⑥-⑦⑧|
①⑧⑩② |-⑨⑩-|
58
①口口② |①-②③|
④口口口 |-④⑤-|
口口口③
⑤口口口

⑨⑥⑥口
口口口⑦
⑩口口口 |⑥-⑦⑧|
口口口⑧ |-⑨⑩-|
59
⑧⑧⑦③ |--①-|
②⑥③口 |②-③-|
口②⑤① |④⑤⑥⑦|
口④①口 |--⑧-|
60
口口口④ |①-②③|
②口口口 |-④⑤-|
口口口⑤
③口①①

⑨口口口
口⑧⑦口
⑥口⑦口 |⑥--⑦|
口⑥⑨口 |⑧-⑨-|
61
口⑥⑥口 |--①②|
②⑦⑨① |③④⑤-|
④口口③ |⑥-⑦⑧|
口⑧⑩⑤ |-⑨⑩-|
62
①口④② |①--②|
①口口② |③-④-|
口①②④
③口口口

口口口口
⑧⑤⑥口
⑤⑧口口 |⑤-⑥⑦|
口口⑦口 |--⑧-|
63
⑧⑧④口 |--①-|
口⑤口② |②-③-|
③口⑥口 |④⑤⑥⑦|
口⑦口① |--⑧-|
64
⑨口口⑨ |①-②③|
②⑧④⑦ |-④⑤-|
口⑥⑦口 |⑥--⑦|
③⑥⑤① |⑧-⑨-|
65
口⑦⑥口 |--①②|
⑤口⑨⑥ |③④⑤-|
③⑧口④ |⑥-⑦⑧|
①口⑩② |-⑨⑩-|
66
③口口③ |①--②|
②③口口 |--③-|
口口①②
②①口①

口⑤④口
口口口④
⑤口⑥口 |--④-|
口口口⑥ |⑤-⑥-|
67
⑤⑨⑥④ |--①②|
③⑦口⑧ |③-④-|
口口口② |⑤⑥⑦⑧|
口①口口 |--⑨-|
68
口口口④ |①-②③|
②口口口 |-④⑤-|
口口口⑤
③口①①

⑨口⑦口
口⑧⑦口
⑥口口口 |⑥--⑦|
口⑥⑨口 |⑧-⑨-|
69
口⑥⑥口 |--①②|
②⑦⑨① |③④⑤-|
④口口③ |⑥-⑦⑧|
口⑧⑩⑤ |-⑨⑩-|
70
①口④② |①--②|
①口口② |③-④-|
口①②④
③口口口

口口口口
⑧⑤⑥口
⑤⑧口口 |⑤-⑥⑦|
口口⑦口 |--⑧-|
71
④⑧⑤口 |--①-|
口口⑧② |②-③-|
⑥口⑦口 |④⑤⑥⑦|
③口口① |⑧---|
72
③口口① |①---|
口①口② |②---|
口②④口 |③---|
⑤口口③ |④-⑤-|
73
⑤①①⑥ |①-②-|
③⑨⑩口 |③-④-|
③⑦⑧④ |⑤⑥⑦⑧|
⑪②②⑫ |⑨⑩⑪⑫|
74
③①①口 |①---|
口口口口 |②---|
③④口⑤ |③---|
④②②⑤ |④-⑤-|
75
⑪口口口 |--①-|
③②①⑩ |②-③-|
⑨⑦④口 |④⑤⑥⑦|
口⑤⑥⑧ |⑧⑨⑩⑪|
76
口口①① |①---|
②②口⑤ |②---|
口口③③ |③---|
④口口口 |④-⑤-|
77
③⑦口口 |--①-|
口②⑥口 |②-③-|
口⑤口口 |④⑤⑥⑦|
⑧口④① |⑧---|
78
②④②⑤ |①---|
④④④口 |②-③-|
③④③① |④---|
口⑥⑥① |⑤-⑥-|
79
①口口口 |--①-|
④⑤⑥⑦ |②-③-|
⑧⑨⑩⑪ |④⑤⑥⑦|
③口口② |⑧⑨⑩⑪|
80
口①①口 |①---|
口口口口 |②-③-|
口口口口
②口③口

口⑥口⑥
口④口口
口口⑤口 |④---|
口口口口 |⑤-⑥-|
81
口口⑤口 |①-②-|
①④①口 |③-④-|
口②口② |----|
③口③口 |⑤---|
82
①⑤口④ |①-②③|
②④①⑤ |④-⑤-|
⑤①④③
④口⑤①

⑦口⑥口
口口⑦口
口⑦口口 |--⑥-|
口⑥口⑦ |--⑦-|
83
口③口⑦ |--①②|
④①⑧口 |③-④-|
⑥⑨②⑤ |⑤-⑥-|
⑩⑥⑤口 |⑦⑧⑨⑩|
84
⑥③①⑥ |①-②-|
③②口① |③-④-|
口口④口 |--⑤-|
口⑤⑤④ |--⑥-|
85
⑦⑦口口 |--①-|
口①②口 |②---|
①口口② |③④⑤⑥|
③④⑤⑥ |⑦---|
86
口口①① |①②③④|
⑧④③⑦ |⑤⑥⑦⑧|
⑥②口⑤
口口口口

口口⑪⑪
口口口口
口口口口 |⑨--⑩|
⑩⑩⑨⑨ |--⑪-|
87
⑦⑤口⑪ |--①②|
⑧①④⑫ |③④⑤⑥|
⑨③②⑬ |⑦⑧⑨⑩|
⑩口⑥⑭ |⑪⑫⑬⑭|
88
口口①口 |①---|
口①口口 |----|
口口②口 |②---|
口口口口 |----|
89
口口口口 |①---|
口①②口 |----|
口口口口 |②---|
口口口口 |----|

accuracy: 100%
最終更新:2023年10月17日 17:49