アットウィキロゴ
BPM:165
Notes:791

1
□□□③|----|
□□②□|----|
□①□□|--①-|
□□□□|②-③-|

2
□□∨□|①---|
□①□<|--②-|
□□②□|----|
③□<□|③---|

□□□□
□2□□
□□3□
□□□□

3
□□□□|--①-|
④□□□|----|
□③□□|--②-|
1□②□|③-④-|

4
□□④□|①---|
□∨□□|--②-|
>□①③|--③-|
□②□□|④---|

□□□□
□□□□
□□2□
□3□□

5
□□□③|----|
□□②□|----|
□①□□|--①-|
□□□□|②-③-|

6
□□∨□|①---|
□①□<|--②-|
□□②□|----|
□□□□|③---|

③□<□
□2□□
□□3□
□□□□

7
1□□□|--①-|
□□④□|----|
□③□□|--②-|
□□□②|③-④-|

8
①□□□|①-②-|
⑤②□⑥|③-④-|
③□□□|⑤-⑥-|
□④□□|⑦-⑧-|

⑦□□□
□□⑧□
□□□□
□□□□

9
□⑤□⑧|①-②-|
□□⑦□|③-④-|
①⑥□□|⑤-⑥-|
③□②④|⑦-⑧-|

10
③□∨□|①---|
□①□<|--②-|
□□②□|③---|
④□<□|④---|

□□□□
□2□□
□□4□
□□□□

11
□□□②|--①-|
⑤□□□|----|
□④□□|②-③-|
1□③①|④-⑤-|

12
□□⑤□|①---|
⑤∨③□|--②-|
>□①④|③-④-|
□②□□|⑤-⑥-|

□□□□
□□□□
□⑥2□
□4□□

13
⑤⑩□⑪|①②③④|
□②⑦①|-⑤--|
⑥□□□|⑥-⑦-|
④⑧③⑨|⑧⑨⑩⑪|

14
□□∨□|①---|
□①□<|--②-|
③□②□|③---|
□□□□|④---|

④□<□
□2□④
□□4□
□□□□

15
1②□□|--①-|
□□⑤□|----|
□④□①|②-③-|
□□□③|④-⑤-|

16
①□□①|①-②-|
⑤②□⑥|③-④-|
③□⑤□|⑤-⑥-|
□④□□|⑦-⑧-|

⑦□□□
□□⑧□
□⑦□□
□□□□

17
□⑦⑤⑤|①-②-|
□□□⑧|③-④-|
①⑥□□|⑤-⑥-|
③□②④|⑦⑧⑨⑩|

□□□□
□□□□
⑨□□□
□□⑩□

18
□□□□|①---|
□①①□|----|
□□□□|----|
□□□□|----|

19
□□□①|----|
②□□④|--①-|
□□⑤□|--②-|
□□③□|③-④⑤|

20
□□□□|①---|
□□□□|----|
□□□□|----|
□①□□|----|

21
⑥②□□|--②-|
□⑦⑤③|③-④-|
④□⑧□|--⑤-|
□□□□|---⑥⑦⑧|

22
□□□④|①---|
□□□③|②---|
□□□②|③---|
□□□①|④---|

23
④□□□|①---|
③□□□|②---|
②□□□|③---|
①□□□|④---|

24
⑨□④⑧|①-②-|
⑦③□⑩|③-④-|
⑪□②⑥|⑤⑥⑦⑧|
⑤①□⑫|⑨⑩⑪⑫|

25
⑤④③②|①---|
□□□⑧|----|
⑦①□<|②③④⑤|
□□□⑥|-⑥⑦⑧|

□□□□
□□□□
□2□□
□□□□

26
□□⑤□|①--②|
②①⑥⑦|--③④|
□⑤④③|⑤---|
①②⑦⑥|⑥--⑦|

27
①⑩⑧②|--①②|
□⑪⑨⑫|③④⑤⑥|
③④⑤⑥|⑦⑧⑨⑩|
⑦□⑭⑬|⑪⑫⑬⑭|

28
□⑤④③|①--②|
①□□⑥|--③④|
□②②⑤|⑤---|
□①⑥□|⑥--⑦|

□□□□
□□□□
□⑦⑦□
□□□□

29
③④⑤⑥|--①②|
□①②□|③④⑤⑥|
⑦⑨⑧⑩|⑦--⑧|
⑦⑦⑩⑩|⑨-⑩-|

30
①④⑧②|①---|
①①①⑥|②-③-④-|
⑤⑨⑩□|⑤-⑥-⑦-|
③□□⑦|⑧---⑨⑩|

31
②□□⑤|①-②-③-|
□③⑥□|④-⑤-⑥-|
⑩⑪⑫①|⑦-⑧-⑨-|
④⑧⑨⑦|⑩⑪⑫⑬⑭⑮|

□⑭⑮□
□□□□
□□□⑬
□□□□

32
①□□④|①--②|
⑤①④②|--③-|
□□□□|④--⑤|
②③⑥⑤|--⑥-|

33
①①□⑥|①--②|
⑤①□②|--③-|
⑦⑧⑨⑩|④-⑤-⑥-|
②③□④|⑦⑧⑨⑩|

34
□□□□|①---|
□①□□|--②-|
□□□□|----|
①□□□|----|

②∨②∨
□□□□
□□□□
∧②∧②

35
1⑥1□|----|
□⑥□③|①---|
④④□③|②-③④|
②1⑤1|-⑤-⑥|

36
④□⑤①|①--②|
②⑨①⑦|-③④⑤|
□□③⑧|⑥-⑦⑧|
⑥□□②|⑨⑩⑪⑫|

□□□□
□□⑩□
□□□□
□⑪⑫□

37
⑥□□①|--①-|
□□⑦⑨|②③④⑤|
□④⑤⑧|⑥--⑦|
②□□③|⑧-⑨-⑩-|

□□□⑩
□□□□
□□□□
□□□□

38
⑥⑧⑦□|①---|
⑤⑩⑨□|--②③|
④②③□|④-⑤-⑥-|
①□①□|⑦⑧⑨⑩|

39
⑩⑨⑧⑥|-①②③|
⑬⑫⑪⑤|④-⑤-⑥-|
□③□④|⑦--⑧⑨⑩|
⑦①②□|⑪⑫⑬⑭⑮⑯|

□□□□
□□□□
⑯⑮⑭□
□□□□

40
⑥□⑤②|①--②|
⑥□⑤②|--③④|
⑥□□②|⑤--⑥|
□④①③|--⑦-|

□⑦□□
□⑦□□
□⑦⑦□
□□⑦□

41
□□□①|----|
□□⑥□|----|
③④⑤□|--①②|
②□□□|③④⑤⑥|

42
②□□□|①---|
□□□③|--②-|
□□④□|--③④|
□①□□|⑤-⑥-|

□□□□
□□□□
⑥□□□
□⑤□□

43
□□□③|①-②-|
□①④□|----|
□□□⑤|③-④-|
□⑥□②|⑤-⑥-|

44
④□□□|①-②-|
□□⑤□|③-④-|
①⑥③□|--⑤-|
□□⑦②|⑥-⑦-|

45
□□④③|①-②-|
②□□□|---③④-|
□⑤□①|--⑤⑥|
□⑦⑥□|⑦-⑧-|

□□□□
⑧□□□
□□□□
□□□□

46
④④□□|①-②-|
□③⑤□|③-④-|
□⑥②①|--⑤⑥|
□□□①|⑦-⑧-|

□□□□
□□□□
□□□□
⑧□⑦⑦

47
③③②②|①-②-|
①□□④|--③-|
□□⑤④|④-⑤-|
⑥⑥□□|⑥-⑦-|

□□⑦□
□□⑦□
□□□□
□□□□

48
④□⑥□|①-②-|
④③⑥□|③-④-|
⑦②□⑤|--⑤-|
⑦□①①|⑥-⑦-|

49
⑤⑤⑥④|①-②-|
③③⑥④|③-④-|
⑦⑦②□|⑤-⑥-|
□□②①|⑦-⑧-|

□□□□
□□□□
□□□⑧
□□□⑧

50
□□□□|①---|
①□□<|----|
□□□□|----|
①□□<|----|

51
□□□□|①---|
1□∨□|----|
□>□①|②---|
1□①□|----|

□□②□
□②□<
□□∧2
□□2□

52
□□1□|①---|
□1①□|----|
□□□□|②---|
□>∧①|----|

□②□□
□□2□
②∧<□
□□□2

53
□1∨∨|①---|
□□□□|----|
1□①①|②---|
□□□□|③---|

②□<□
②□<□
□□22
□□□□

3□□□
3>□③
□□□□
□>□③

54
□□□□|①---|
□∨□1|----|
①□<□|----|
□①□1|----|

55
□□①□|①---|
□□□□|----|
1>∧①|②---|
□1□□|----|

□□2□
□②□□
□□□2
②∧<□

56
□>∨①|①---|
□1□□|----|
□□①□|----|
1□□□|----|

57
□□□□|----|
□□□□|----|
□□□□|----|
□□□□|----|

58
①□□①|①---|
□□□□|----|
□①①□|----|
□□□□|----|

59
⑥□□③|①--②|
□②⑤□|--③-|
□□□□|④--⑤|
①①④④|--⑥-|

60
⑥□□③|①--②|
□②⑤□|--③-|
□□□□|④--⑤|
①①④④|--⑥-|

61
□□□⑨|--①②|
④□⑧⑦|③-④-|
□□⑥⑤|⑤⑥⑦⑧|
①②③□|⑨---|

62
⑬⑭⑮⑯|①②③④|
⑨⑩⑪⑫|⑤⑥⑦⑧|
⑤⑥⑦⑧|⑨⑩⑪⑫|
①②③④|⑬⑭⑮⑯|

63
⑬⑭⑮⑯|①②③④|
⑨⑩⑪⑫|⑤⑥⑦⑧|
⑤⑥⑦⑧|⑨⑩⑪⑫|
①②③④|⑬⑭⑮⑯|

64
⑨□□⑧|①-②-|
□⑤□□|③-④-|
□③④⑩|⑤⑥⑦⑧|
①⑦⑥②|⑨⑩⑪⑫|

□□□□
□□⑫□
□□□□
⑪□□□

65
□①□<|①---|
③④⑤□|----|
⑥⑦②□|②-③④|
□□⑤②|⑤⑥⑦-|

□2□□
□□□□
□□□□
□□□□

66
⑥⑥①①|①--②|
⑥⑤⑦①|-③④⑤|
□⑧③□|⑥--⑦|
④②□□|-⑧⑨⑩|

□□⑨□
□□□⑩
□□□□
□□□□

67
⑤④□□|①--②|
□②⑨⑦|-③④⑤|
⑥⑧③①|⑥--⑦|
⑥⑥①①|-⑧⑨⑩|

□□□□
□□□□
□□□□
□□⑩□

68
⑥⑥①①|①--②|
□②⑦□|-③④⑤|
⑥⑧③①|⑥--⑦|
⑤④□□|-⑧⑨⑩|

□□⑩⑨
□□□□
□□□□
□□□□

69
④⑤□□|①--②|
⑥②⑦①|-③④⑤|
⑥⑧③①|⑥--⑦|
⑥□□①|-⑧⑨⑩|

□□□□
□□□□
□□□⑨
□□⑩□

70
⑥⑥①①|①--②|
⑥⑤⑦①|-③④⑤|
⑧⑨③□|⑥--⑦|
④②□□|⑧⑨⑩⑪|

□□□□
□□□⑩
□□□□
□□⑪□

71
□⑩⑤④|①-②-|
⑥⑫□⑨|③④⑤⑥|
□□⑦①|⑦⑧⑨⑩|
②⑧⑪③|⑪⑫⑬⑭|

□□□□
□□□□
□⑭□⑬
□□□□

72
②⑩⑨⑧|①--②③④|
③⑪①□|⑤-⑥-⑦-|
④□⑦□|⑧-⑨-⑩-|
⑤□□⑥|⑪-⑫-⑬-|

□□□□
□□⑫⑬
□□□□
□□□□

73
□□□③|①-②-|
①□□<|③-④-|
□②④□|⑤⑥⑦⑧|
①□□<|⑨⑩⑪⑫|

⑧⑥□□
5□⑪□
⑩⑫□⑦
5□⑤⑨

78
⑥⑥①①|①--②|
⑥⑤⑦①|-③④⑤|
□⑧③□|⑥--⑦|
④②□□|-⑧⑨⑩|

□□⑨□
□□□⑩
□□□□
□□□□

79
⑤④□□|①--②|
□②⑨⑦|-③④⑤|
⑥⑧③①|⑥--⑦|
⑥⑥①①|-⑧⑨⑩|

□□□□
□□□□
□□□□
□□⑩□

80
⑥⑥①①|①--②|
□②⑦□|-③④⑤|
⑥⑧③①|⑥--⑦|
⑤④□□|-⑧⑨⑩|

□□⑩⑨
□□□□
□□□□
□□□□

81
⑦⑧□□|①②③④|
①②⑭⑬|⑤⑥⑦⑧|
⑫⑩⑪⑥|⑨⑩⑪⑫|
④⑤⑨③|⑬⑭⑮⑯|

□□□□
⑯⑮□□
□□□□
□□□□

82
③⑤⑦□|①---|
□□⑩⑨|②-③-④-|
□□□⑧|⑤-⑥-⑦-|
②④⑥①|⑧-⑨-⑩-|

83
□⑩⑪□|①-②-③-|
④②⑬□|④-⑤⑥⑦⑧|
⑫③①⑨|⑨-⑩-⑪-|
⑧⑦⑥⑤|⑫-⑬-⑭-|

□□□□
□⑭□□
□□□□
□□□□

84
②③④①|①--②|
②□□①|--③-|
④②①③|-④--|
□④③□|⑤--⑥|

⑥□□⑤
□⑤⑥□
□⑥⑤□
□□□□

85
④①②③|--①-|
②⑥⑤①|-②--|
②④③①|③--④|
④②①③|--⑤⑥|

86
□□□□|①---|
□>□①|----|
□>□①|----|
>□①□|----|

87
□□□□|----|
□□□□|----|
□□□□|----|
□□□□|----|

88
□□□□|----|
□□□□|----|
□□□□|----|
□□□□|----|

89
□□□□|----|
□□□□|----|
□□□□|----|
□□□□|----|

90
□□□□|----|
□□□□|----|
□□□□|----|
□□□□|----|

91
□□□□|①---|
□□□1|----|
□□□1|----|
□□1□|----|
最終更新:2022年10月19日 01:58