アットウィキロゴ
Fly Above
Sota Fujimori

BASIC

Level: 3
BPM: 150
Notes: 307

1
口口口口 |----|
口口口口 |----|
口口口口 |----|
口口口口 |----|
2
④口口④ |①---|
口口口口 |②---|
口③③口 |③---|
①口口② |④---|
3
口口口口 |①---|
口口①口 |②---|
口②口口 |③---|
③口口口 |----|
4
口口口口 |①---|
口①口口 |②---|
口口②口 |③---|
口口口③ |----|
5
口口口③ |①---|
口口②口 |②---|
口①口口 |③---|
口口口口 |----|
6
③口口口 |①---|
口②口口 |②---|
口口①口 |③---|
口口口口 |----|
7
口口口口 |①---|
口口①口 |②---|
口②口口 |③---|
③口口口 |----|
8
口口口口 |①---|
口①口口 |②---|
口口②口 |③---|
口口口③ |----|
9
口口口③ |①---|
口口②口 |②---|
口①口口 |③---|
口口口口 |----|
10
②口口② |①---|
口③口口 |--②-|
口①①口 |----|
口口口口 |③---|
11
口口④口 |①---|
口口口③ |②---|
口口口② |③---|
口口①口 |④---|
12
口口口口 |①---|
①①口口 |----|
②②口口 |②---|
口口口口 |----|
13
②口口口 |①---|
口③口口 |----|
口口口口 |②---|
口①①口 |③---|
14
口口口口 |①---|
口口②② |----|
口口①① |②---|
口口口口 |----|
15
口①口口 |①---|
②口口口 |②---|
③口口口 |③---|
口④口口 |④---|
16
口口口口 |①---|
口口①① |----|
口口②② |②---|
口口口口 |----|
17
口口口② |①---|
口口③口 |----|
口口口口 |②---|
口①①口 |③---|
18
②②②② |①---|
口口口口 |----|
①①口口 |----|
口口口口 |②---|
19
口口④口 |①---|
口口口③ |②---|
口口口② |③---|
口口①口 |④---|
20
口口口口 |①---|
①①口口 |----|
②②口口 |②---|
口口口口 |----|
21
②口口口 |①---|
口③口口 |----|
口口口口 |②---|
口①①口 |③---|
22
口口口口 |①---|
口口②② |----|
口口①① |②---|
口口口口 |----|
23
口①①口 |①---|
口口口口 |----|
口口③口 |②---|
口②口口 |③---|
24
①口口④ |①---|
口②③口 |②---|
口口口口 |③---|
口口口口 |④---|
25
口①①口 |①---|
②口口口 |----|
口口口③ |②---|
口口口口 |③---|
26
口口口口 |①---|
②口口② |----|
口口口口 |②---|
口①①口 |----|
27
口口口口 |①---|
口口口口 |----|
口①①口 |----|
口口口口 |----|
28
口口口④ |①---|
口口③口 |②---|
口②口口 |③---|
①口口口 |④---|
29
口①①口 |①---|
口口口口 |----|
口②②口 |②---|
口口口口 |----|
30
②口口② |①---|
①口口① |----|
口口口口 |②---|
口口口口 |----|
31
口口口口 |①---|
口①①口 |----|
口口口口 |----|
口口口口 |----|
32
④口口口 |①---|
口③口口 |②---|
口口②口 |③---|
口口口① |④---|
33
口①①口 |①---|
口口口口 |----|
口②②口 |②---|
口口口口 |----|
34
②口口② |①---|
①口口① |----|
口口口口 |②---|
口口口口 |----|
35
口口口口 |①---|
口①①口 |----|
口口口口 |----|
口口口口 |----|
36
口口口④ |①---|
口口③口 |②---|
口②口口 |③---|
①口口口 |④---|
37
口①①口 |①---|
口口口口 |----|
口②②口 |②---|
口口口口 |----|
38
②口口② |①---|
①口口① |----|
口口口口 |②---|
口口口口 |----|
39
口口口口 |①---|
口①①口 |----|
口口口口 |----|
口口口口 |----|
40
④口口口 |①---|
口③口口 |②---|
口口②口 |③---|
口口口① |④---|
41
口①①口 |①---|
口口口口 |----|
口②②口 |②---|
口口口口 |----|
42
①口口① |①---|
口③④口 |--②-|
口口口口 |----|
②口口② |③-④-|
43
口口口口 |----|
口口口口 |----|
口口口口 |----|
口口口口 |----|
44
口口口口 |----|
口口口口 |----|
口口口口 |----|
口口口口 |----|
45
口口口口 |----|
口口口口 |----|
口口口口 |----|
口口口口 |----|
46
④口口④ |①---|
口口口口 |②---|
口③③口 |③---|
①口口② |④---|
47
口①①口 |①---|
②口口口 |②---|
口口口③ |③---|
口④口口 |④---|
48
口③③口 |①---|
口②②口 |②---|
口①①口 |③---|
口口口口 |----|
49
口③②口 |①---|
④口口① |②---|
口口口口 |③---|
口口口口 |④---|
50
口口口口 |①---|
②口口② |----|
口③③口 |②---|
口①①口 |③---|
51
①口口① |①---|
口②②口 |----|
口口口口 |②---|
口口口口 |----|
52
口口口口 |①---|
口口口口 |②---|
口口口口 |③---|
①②③口 |----|
53
口口口口 |①---|
口口口口 |----|
①①②② |②---|
口口口口 |----|
54
口口口口 |①---|
口①①口 |----|
口②口口 |----|
口口口口 |②---|
55
口①①口 |①---|
②口口口 |②---|
口口口③ |③---|
口④口口 |④---|
56
口③③口 |①---|
口②②口 |②---|
口①①口 |③---|
口口口口 |----|
57
口③②口 |①---|
④口口① |②---|
口口口口 |③---|
口口口口 |④---|
58
口口口口 |①---|
②口口② |----|
口③③口 |②---|
口①①口 |③---|
59
①口口① |①---|
口②②口 |----|
口口口口 |②---|
口口口口 |----|
60
口口口口 |①---|
口口口口 |②---|
口口口口 |③---|
①②③口 |----|
61
①口口① |①---|
口②②口 |②---|
③口口③ |③---|
口④④口 |④---|
62
口①①口 |①---|
口③④口 |②---|
口③④口 |③-④-|
②口口② |----|
63
①②③④ |①---|
口口口口 |②---|
口口口口 |③---|
口口口口 |④---|
64
口口口口 |①---|
口②②口 |----|
口①①口 |②---|
口口口口 |----|
65
口口口口 |①---|
口口口口 |②---|
口口口口 |③---|
④③②① |④---|
66
口口口口 |①---|
口①①口 |----|
口②②口 |②---|
口口口口 |----|
67
口②③口 |①---|
①口口① |----|
口口口口 |②---|
口口口口 |③---|
68
口口口口 |①---|
口②②口 |----|
口①①口 |②---|
口口口口 |----|
69
①口口① |①---|
口口口口 |----|
口口口口 |②---|
②口口② |----|
70
口口口口 |①---|
口①④口 |②---|
口③②口 |③---|
口口口口 |④---|
71
①②③④ |①---|
口口口口 |②---|
口口口口 |③---|
口口口口 |④---|
72
口口口口 |①---|
口②②口 |----|
口①①口 |②---|
口口口口 |----|
73
口口口口 |①---|
口口口口 |②---|
口口口口 |③---|
④③②① |④---|
74
口口口口 |①---|
口①①口 |----|
口②②口 |②---|
口口口口 |----|
75
口②③口 |①---|
①口口① |----|
口口口口 |②---|
口口口口 |③---|
76
口口口口 |①---|
口②②口 |----|
口①①口 |②---|
口口口口 |----|
77
①口口① |①---|
口口口口 |----|
口口口口 |②---|
②口口② |----|
78
③③口口 |①---|
口①口口 |②-③-|
口口②口 |--④-|
口口④④ |----|

accuracy: 100%
最終更新:2023年10月12日 12:10