アットウィキロゴ
Fly Above
Sota Fujimori

ADVANCED

Level: 6
BPM: 150
Notes: 491

1
口口口口 |----|
口口口口 |----|
口口口口 |----|
口口口口 |----|
2
①⑦⑦口 |①-②-|
口⑤口② |③-④-|
③口⑥口 |⑤-⑥-|
口口口④ |⑦---|
3
口口口口 |①--②|
③口口⑥ |--③-|
②⑤口口 |--④-|
①口口④ |⑤-⑥-|
4
口①①口 |①--②|
口⑤③⑥ |--③-|
口④②口 |-④--|
口口口口 |⑤-⑥-|
5
①口口口 |①--②|
②⑥⑤口 |--③-|
③口④口 |-④--|
口口口口 |⑤-⑥-|
6
口口口① |①--②|
口⑤⑥② |--③-|
口④口③ |-④--|
口口口口 |⑤-⑥-|
7
口口口口 |①--②|
③口口⑥ |--③-|
②⑤口口 |--④-|
①口口④ |⑤-⑥-|
8
口①①口 |①--②|
口⑤③⑥ |--③-|
口④②口 |-④--|
口口口口 |⑤-⑥-|
9
①口口口 |①--②|
②⑥⑤口 |--③-|
③口④口 |-④--|
口口口口 |⑤-⑥-|
10
④④①① |①--②|
口口口口 |--③-|
口⑥⑤口 |-④--|
②②③③ |⑤-⑥-|
11
口口①① |①---|
口②⑥口 |②---|
③⑤口口 |③-④-|
口口④口 |⑤-⑥-|
12
②①口口 |①---|
①②口口 |--②-|
口口④口 |----|
口③口口 |③-④-|
13
口口口③ |①---|
④口口① |②---|
②口口⑤ |③-④-|
⑥口口口 |⑤-⑥-|
14
口口①② |①---|
口口②① |--②-|
口口口口 |----|
口③③口 |③---|
15
①①②② |①---|
口③口口 |--②-|
口口④口 |----|
口口口口 |③-④-|
16
口①③口 |①---|
①④口口 |②-③-|
口口⑤② |----|
口口口口 |④-⑤-|
17
④口③口 |①---|
口③口④ |②---|
口口口口 |③---|
②口口① |④---|
18
④④口口 |①---|
口口口口 |②-③-|
②口口③ |----|
口①①口 |④---|
19
口口①① |①---|
口②⑥口 |②---|
③⑤口口 |③-④-|
口口④口 |⑤-⑥-|
20
②①口口 |①---|
①②口口 |--②-|
口口④口 |----|
口③口口 |③-④-|
21
口口口③ |①---|
④口口① |②---|
②口口⑤ |③-④-|
⑥口口口 |⑤-⑥-|
22
口口①② |①---|
口口②① |--②-|
③口口口 |----|
口口口口 |③---|
23
口①①口 |①---|
口口口口 |②---|
口口口口
口口口②

口④口口
口口③口
口③口口 |③---|
口口④口 |④---|
24
口口口① |①---|
②②④口 |②-③-|
口⑤③③ |----|
①口口口 |④-⑤-|
25
口③口口 |①---|
口口口④ |②---|
⑤口口口 |③-④-|
①口⑥② |⑤-⑥-|
26
③④口口 |①---|
口①①口 |----|
口②②口 |②---|
口口口口 |③-④-|
27
口口①口 |①---|
口口口口 |----|
口②口口 |----|
口口口口 |--②-|
28
口②①口 |①---|
④口口④ |②-③-|
口口③口 |--④-|
口⑤口口 |--⑤-|
29
口口口口 |①---|
口口①口 |--②-|
口②②口 |----|
③口口③ |③---|
30
①口口① |①---|
口③②口 |--②-|
口②③口 |----|
口口口口 |③---|
31
口①①口 |①---|
口口口口 |----|
口②口口 |----|
口口口口 |--②-|
32
口②①口 |①---|
④口口④ |②-③-|
口口③口 |--④-|
口⑤口口 |--⑤-|
33
口口口口 |①---|
口口①口 |--②-|
口②②口 |----|
口口口口 |----|
34
①口口① |①---|
口③②口 |--②-|
口②③口 |----|
口口口口 |③---|
35
④①①口 |①---|
③口口口 |②---|
②口⑤口 |③---|
口口口口 |④-⑤-|
36
口①③口 |①---|
④口口④ |②-③-|
口②口口 |--④-|
口口⑤口 |--⑤-|
37
口口口口 |①---|
口①口口 |--②-|
口②②口 |----|
③口口③ |③---|
38
①口口① |①---|
口②③口 |--②-|
口③②口 |----|
口口口口 |③---|
39
口①①④ |①---|
口口口③ |②---|
口⑤口② |③---|
口口口口 |④-⑤-|
40
口③①口 |①---|
④口口④ |②-③-|
口口②口 |--④-|
口⑤口口 |--⑤-|
41
口口口口 |①---|
口口①口 |--②-|
口②②口 |----|
③口口③ |③---|
42
①⑥⑥① |①--②|
②④④② |--③-|
③口口③ |-④--|
口⑤⑤口 |⑤-⑥-|
43
口口口口 |----|
口口口口 |----|
口口口口 |----|
口口口口 |----|
44
口口口口 |----|
口口口口 |----|
口口口口 |----|
口口口口 |----|
45
口口口口 |----|
口口口口 |----|
口口口口 |----|
口口口口 |----|
46
①⑦⑦口 |①-②-|
口⑤口② |③-④-|
③口⑥口 |⑤-⑥-|
口口口④ |⑦---|
47
④口口③ |①---|
①④③① |②-③-|
口口口口 |----|
口②口口 |④---|
48
口①①口 |①---|
口口口口 |②-③-|
②④④③ |----|
口②③口 |④---|
49
④②①③ |①---|
①口⑤② |②---|
口⑤口口 |③--④|
③口口④ |--⑤-|
50
③②②③ |①---|
口①口口 |--②-|
口口①口 |----|
口口口口 |③---|
51
口④③口 |①---|
④口口③ |②-③-|
口口口口 |----|
②①①口 |④---|
52
①口口① |①---|
口口口口 |②-③-|
口②③口 |----|
②④④③ |④---|
53
口口④④ |①---|
①③③① |--②-|
②②口口 |--③-|
口口口口 |--④-|
54
口口口口 |----|
口口口口 |----|
口口口口 |----|
①口口① |①---|
55
①口口① |①---|
口③⑥口 |②---|
口⑤④口 |③-④-|
口②口口 |⑤-⑥-|
56
口①①口 |①---|
口口口口 |②-③-|
②④④③ |----|
口②③口 |④---|
57
④②①③ |①---|
①口⑤② |②---|
口⑤口口 |③--④|
③口口④ |--⑤-|
58
口②②口 |①---|
③①口口 |--②-|
口口①④ |----|
口口口口 |③-④-|
59
口④③口 |①---|
④口口③ |②-③-|
口口口口 |----|
②①①口 |④---|
60
①口口① |①---|
口口口口 |②-③-|
口②③口 |----|
②④口③ |--④-|
61
②②①① |①---|
口④③口 |②-③-|
口③④口 |--④-|
⑤口口⑤ |--⑤-|
62
①④③① |①---|
口③④口 |②---|
③口口④ |③-④-|
口②②口 |----|
63
①③口② |①---|
口口口④ |②---|
⑤①口口 |③-④-|
口口⑥口 |⑤-⑥-|
64
①口①口 |①---|
口②⑤口 |②---|
口④口口 |③---|
口③口③ |④-⑤-|
65
③口口① |①---|
②口④口 |②---|
口⑤口口 |③-④-|
口口口⑥ |⑤-⑥-|
66
口口口口 |①---|
口①口① |②---|
口口口口
口②口口

④口口口
口⑤口口
口口口口 |③---|
③口③口 |④-⑤-|
67
口③口口 |①---|
口口口④ |②---|
⑤②①口 |③-④-|
口口⑥口 |⑤-⑥-|
68
①口①口 |①---|
口②口口 |②---|
口口④口 |③---|
口③口③ |④---|
69
①口口口 |①---|
口口②口 |②---|
①口口口
口口口口

④口口③
口⑤口口
口口口③ |③---|
口口口口 |④-⑤-|
70
口③口③ |①---|
口④④口 |②-③-|
口口①口 |--④-|
②口②口 |----|
71
①③口② |①---|
口口口④ |②---|
⑤①口口 |③-④-|
口口⑥口 |⑤-⑥-|
72
①口①口 |①---|
口②⑤口 |②---|
口④口口 |③---|
口③口③ |④-⑤-|
73
③口口① |①---|
②口④口 |②---|
口⑤口口 |③-④-|
口口口⑥ |⑤-⑥-|
74
口口口口 |①---|
口①口① |②---|
口口口口
口②口口

④口口口
口⑤口口
口口口口 |③---|
③口③口 |④-⑤-|
75
口③口口 |①---|
口口口④ |②---|
⑤②①口 |③-④-|
口口⑥口 |⑤-⑥-|
76
①口①口 |①---|
口②口口 |②---|
口口④口 |③---|
口③口③ |④---|
77
①④口③ |①---|
④口②口 |②---|
①口⑤③ |③---|
口口口⑤ |④-⑤-|
78
④口口④ |①---|
口③②口 |②-③-|
④①口④ |--④-|
①②③口 |----|

accuracy: 100%
最終更新:2023年10月12日 12:18