アットウィキロゴ
Fly Above
Sota Fujimori

EXTREME

Level: 9.3
BPM: 150
Notes: 824

1
口口口口 |----|
口口口口 |----|
口口口口 |----|
口口口口 |----|
2
①⑤⑩② |①-②-|
口⑩口⑩ |③④-⑤|
口③④口 |⑥⑦⑧⑨|
⑨⑧⑦⑥ |⑩---|
3
①④⑪① |①--②|
③⑥⑦⑩ |③-④-|
⑤口⑨② |⑤⑥⑦-|
⑧口口⑧ |⑧⑨⑩⑪|
4
①④口① |①--②|
③口⑦⑧ |③-④-|
⑤口⑧⑦ |⑤⑥--|
⑦⑥②口 |⑦-⑧-|
5
①口①① |①--②|
③④口口 |③-④-|
口口口口
口口②口

口口⑦口
口口口⑧
⑤口口⑦ |⑤⑥--|
⑦口⑧⑥ |⑦-⑧-|
6
①口⑦① |①--②|
③④②⑦ |③-④-|
⑤②④口 |⑤⑥--|
⑦⑧⑧⑥ |⑦-⑧-|
7
①④⑪① |①--②|
③⑥⑦⑩ |③-④-|
⑤口⑨② |⑤⑥⑦-|
⑧口口⑧ |⑧⑨⑩⑪|
8
①④口① |①--②|
③口⑦⑧ |③-④-|
⑤口⑧⑦ |⑤⑥--|
⑦⑥②口 |⑦-⑧-|
9
①口①① |①--②|
③④口口 |③-④-|
口口口口
口口②口

口口⑦口
口口口⑧
⑤口口⑦ |⑤⑥--|
⑦口⑧⑥ |⑦-⑧-|
10
①②④① |①--②|
③⑥③口 |--③-|
口⑤⑥⑤ |-④--|
口②④口 |⑤-⑥-|
11
①口口① |①---|
②④口口 |②---|
③口⑤口 |③-④-|
⑤⑥口口 |⑤-⑥-|
12
①口⑥③ |①-②-|
③⑧④④ |③-④-|
⑤②⑤⑦ |⑤-⑥-|
⑦口①① |⑦-⑧-|
13
①①⑤③ |①---|
②口④口 |②---|
③口③⑤ |③-④-|
⑤口口口 |⑤---|
14
①口口口 |①---|
②①③① |②-③-|
④⑤⑤口 |④---|
⑤⑥口③ |⑤-⑥-|
15
①口①③ |①---|
②⑤口① |②-③-|
④口⑥③ |④---|
⑤口口口 |⑤-⑥-|
16
①①①⑥ |①-②-|
③⑤④④ |③-④-|
⑤⑦口⑧ |⑤-⑥-|
⑦②③③ |⑦-⑧-|
17
①口①口 |①---|
②口④③ |②---|
③口③口 |③---|
④口口④ |④---|
18
①⑥⑥① |①---|
口②口口 |--②-|
口口③口 |③-④⑤|
口④⑤口 |⑥---|
19
①口口① |①-②-|
③口④口 |③-④-|
⑤口⑥② |⑤---|
⑥⑦口口 |⑥-⑦-|
20
①③⑥⑤ |①-②-|
③⑧④④ |③-④-|
⑤②口⑦ |⑤-⑥-|
⑦口①① |⑦-⑧-|
21
①①⑥⑤ |①-②-|
③⑧⑦② |③-④-|
⑤⑦⑤⑥ |⑤-⑥-|
⑦口⑧④ |⑦-⑧-|
22
①口口⑤ |①---|
②口口① |②-③-|
④⑦⑧③ |④-⑤-|
⑥口口③ |⑥-⑦⑧|
23
①口①⑥ |①-②-|
③②⑤⑤ |③-④-|
⑤口⑥口 |⑤---|
⑥口口④ |⑥---|
24
①口①⑦ |①-②-|
③⑧③③ |③-④-|
⑤口⑥① |⑤-⑥-|
⑦②④④ |⑦-⑧-|
25
①④口口 |①-②-|
③口③⑤ |③-④-|
⑤⑧口① |⑤-⑥-|
⑦②⑥⑦ |⑦-⑧-|
26
①口口① |①---|
②口③② |②-③④|
口口④口
口口口口

口口口⑦
口口口口
⑤⑧口⑥ |⑤-⑥-|
⑦口⑤口 |⑦-⑧-|
27
①①①口 |①---|
②口口口 |②---|
③口口口 |③---|
④口⑤⑤ |④-⑤-|
28
①口②① |①---|
②⑤①② |②-③-|
④口③口 |④-⑤-|
⑥③⑤⑦ |⑥-⑦-|
29
①①口① |①-②-|
③口②口 |③-④-|
⑤④④口 |⑤---|
⑥口⑥口 |⑥---|
30
①⑥①⑥ |①-②-|
③④②① |③-④-|
⑤口④口 |⑤---|
⑥口口口 |⑥---|
31
①口口口 |①---|
②口口口 |②---|
口口口口
口①口①

口口口口
口口口口
③口口口 |③---|
④口⑤⑤ |④-⑤-|
32
①口②① |①---|
②⑤①② |②-③-|
④口③口 |④-⑤-|
⑥③⑤⑦ |⑥-⑦-|
33
①①口① |①-②-|
③口②口 |③-④-|
⑤④④口 |⑤---|
⑥口口口 |⑥---|
34
①口①口 |①-②-|
③④②口 |③-④-|
⑤⑥⑥① |⑤---|
⑥口④口 |⑥---|
35
①①口① |①--②|
③口口④ |③-④-|
口口口口
口口口②

口口口⑪
口⑩口口
⑤⑥⑦⑨ |⑤⑥⑦-|
⑧口口口 |⑧⑨⑩⑪|
36
①①口口 |①--②|
③口②口 |③-④-|
⑤口口⑥ |⑤⑥--|
⑦口④⑧ |⑦-⑧-|
37
①①口① |①--②|
③口②口 |③-④-|
口④④口
口口口口

口口口⑧
口口⑧口
⑤口口⑥ |⑤⑥--|
⑦口⑦口 |⑦-⑧-|
38
①①①口 |①--②|
③④口④ |③-④-|
口口③口
口口口②

口⑦口⑦
口口口口
⑤口口⑥ |⑤⑥--|
⑦⑨⑧口 |⑦-⑧⑨|
39
①口①⑪ |①--②|
③⑩口④ |③-④-|
⑤⑥⑦⑨ |⑤⑥⑦-|
⑧口口② |⑧⑨⑩⑪|
40
①①口口 |①--②|
③口②口 |③-④-|
⑤口口⑥ |⑤⑥--|
⑦口④⑧ |⑦-⑧-|
41
①①口① |①--②|
③口②④ |③-④-|
口口口口
口口口口

⑨口口⑨
口口口口
⑤⑥⑦口 |⑤⑥⑦-|
⑧口口⑧ |⑧-⑨-|
42
⑤②①⑥ |①--②|
④⑤⑥③ |--③-|
③⑤⑥④ |-④--|
⑤①②⑥ |⑤-⑥-|
43
口口口口 |----|
口口口口 |----|
口口口口 |----|
口口口口 |----|
44
①口口口 |----|
口口口口 |----|
口口口口 |----|
口口口口 |-①--|
45
口口口口 |----|
口口口口 |----|
口口口口 |----|
口口口口 |----|
46
①⑤⑩② |①-②-|
口⑩口⑩ |③④-⑤|
口③④口 |⑥⑦⑧⑨|
⑨⑧⑦⑥ |⑩---|
47
①③口① |①---|
②⑤③⑤ |②-③-|
④②口① |④---|
⑤口②口 |⑤---|
48
①③③口 |①---|
②口口口 |②-③-|
④①口② |④---|
⑤②口① |⑤---|
49
①⑥口⑥ |①---|
②②①④ |②---|
③①②④ |③--④|
⑤③口③ |⑤-⑥-|
50
①口口口 |①---|
②③①口 |②-③-|
口①③口
口口口口

口口口口
口口口⑤
④⑥口口 |④---|
⑤口口口 |⑤-⑥-|
51
①口口③ |①---|
②⑤口口 |②-③-|
④口③口 |④---|
⑤口⑤① |⑤---|
52
①口③③ |①---|
②口①口 |②-③-|
口口②②
口①口口

口口口口
口⑤⑤口
④口口口 |④---|
⑤口口口 |⑤---|
53
①③口③ |①---|
②⑤口⑤ |②-③-|
④⑦口⑦ |④-⑤-|
⑥①①口 |⑥-⑦-|
54
①口口口 |①---|
②口口口 |②---|
③口④口 |③---|
④口④口 |④---|
55
①①③① |①---|
②④口口 |②---|
③口⑤口 |③-④-|
⑤⑥口口 |⑤-⑥-|
56
①③③口 |①---|
②口①② |②-③-|
④口口① |④---|
⑤口②口 |⑤---|
57
①口口① |①---|
②①口口 |②---|
口口口②
口②口口

口口口口
口⑥④口
③④⑥口 |③--④|
⑤口③③ |⑤-⑥-|
58
①①口① |①---|
②口③口 |②-③-|
口③口口
口口口口

口口口⑤
口⑥口口
④口口口 |④---|
⑤口口口 |⑤-⑥-|
59
①③③口 |①---|
②口口口 |②-③-|
④⑤口口 |④---|
⑤②⑤① |⑤---|
60
①口③③ |①---|
②口①口 |②-③-|
④口②② |④---|
⑤⑥口① |⑤-⑥-|
61
①口口② |①---|
②①①口 |②-③-|
口③③口
口口口口

口⑤⑤口
口口⑦口
④口口口 |④-⑤-|
⑥口口口 |⑥-⑦-|
62
①④③② |①---|
①口⑤② |②---|
②④③① |③-④-|
④②①③ |--⑤-|
63
①口口① |①---|
②③口④ |②---|
③口口口 |③-④-|
⑤⑤口⑥ |⑤-⑥-|
64
①口口口 |①---|
②口⑤口 |②---|
③口①④ |③---|
④③口口 |④-⑤-|
65
①①口③ |①---|
②④口口 |②---|
③口口⑤ |③-④-|
⑤⑥口口 |⑤-⑥-|
66
①口⑥③ |①---|
②⑥⑦④ |②-③④|
⑤⑦①⑤ |⑤---|
⑥口口口 |⑥-⑦-|
67
①口口口 |①---|
②口口口 |②---|
口口①口
口①口口

口口口口
口③口④
③口口口 |③-④-|
⑤⑤口⑥ |⑤-⑥-|
68
①口口口 |①---|
②口口口 |②---|
③口①口 |③---|
④③口口 |④---|
69
①口口① |①---|
②口口口 |②---|
口①口口
口口口口

口③口④
口口⑤口
③口口③ |③---|
④口口口 |④-⑤-|
70
①③③口 |①---|
②口口⑤ |②-③-|
④①口⑤ |④-⑤-|
⑥②②口 |⑥---|
71
①口口① |①---|
②③口④ |②---|
③口口口 |③-④-|
⑤⑤口⑥ |⑤-⑥-|
72
①口口口 |①---|
②口⑤口 |②---|
③口①④ |③---|
④③口口 |④-⑤-|
73
①①口③ |①---|
②④口口 |②---|
③口口⑤ |③-④-|
⑤⑥口口 |⑤-⑥-|
74
①口⑥③ |①---|
②⑥⑦④ |②-③④|
⑤⑦①⑤ |⑤---|
⑥口口口 |⑥-⑦-|
75
①口口口 |①---|
②口口口 |②---|
口口①口
口①口口

口口口口
口③口④
③口口口 |③-④-|
⑤⑤口⑥ |⑤-⑥-|
76
①口口口 |①---|
②口口口 |②---|
③口①口 |③---|
④③口口 |④---|
77
①③⑨② |①-②-|
⑧④⑩⑦ |③④⑤⑥|
口⑤⑪口 |⑦-⑧-|
口⑥⑫口 |⑨⑩⑪⑫|
78
①④④① |①---|
③②口② |②-③-|
①③口① |--④-|
②④④③ |----|

accuracy: 100%
最終更新:2023年10月12日 12:31