アットウィキロゴ
Chewingood!!!
TORIENA

BASIC

Level: 4
BPM: 190
Notes: 363

1
口口口口 |----|
口口口口 |----|
口口口口 |----|
口口口口 |----|
2
口口口口 |①---|
口口②① |----|
口口口口 |②---|
口口口口 |----|
3
口口口口 |①---|
①②口口 |----|
口口口口 |②---|
口口口口 |----|
4
口口口口 |①---|
口口口口 |----|
口口②① |②---|
口口口口 |----|
5
口口口口 |①---|
口口口口 |----|
①②口口 |②---|
口口口口 |----|
6
口口口口 |①---|
口口②① |----|
口口口口 |②---|
口口口口 |----|
7
口口口口 |①---|
①②口口 |----|
口口口口 |②---|
口口口口 |----|
8
口口口口 |①---|
口口口口 |----|
口口②① |②---|
口口口口 |----|
9
口口口口 |①---|
口口口口 |----|
①②口口 |②---|
口口口口 |----|
10
口口①口 |①---|
口口②口 |----|
口口口口 |②---|
口口口口 |----|
11
口口口口 |①---|
口口口口 |----|
口口①口 |②---|
口口②口 |----|
12
口①口口 |①---|
口②口口 |----|
口口口口 |②---|
口口口口 |----|
13
口口口口 |①---|
口口口口 |----|
口①口口 |②---|
口②口口 |----|
14
口口口口 |①---|
①②③④ |②---|
口口口口 |③---|
口口口口 |④---|
15
口口口口 |①---|
口口口口 |②---|
④③②① |③---|
口口口口 |④---|
16
口①②口 |①---|
口③④口 |②---|
口口口口 |③---|
口口口口 |④---|
17
口口口口 |①---|
口口口口 |②---|
口①②口 |③---|
口③④口 |④---|
18
口口口口 |①---|
口口口口 |----|
①口口① |----|
口口口口 |----|
19
口③口口 |①---|
口口②口 |②---|
口①口口 |③---|
口口口口 |----|
20
口口口口 |①---|
口口口③ |②---|
口口口② |③---|
口口口① |----|
21
口口口口 |①---|
③口口口 |②---|
②口口口 |③---|
①口口口 |----|
22
口口口口 |①---|
口④③口 |②---|
口②①口 |③---|
口口口口 |④---|
23
③口口③ |①---|
②口口② |②---|
①口口① |③---|
口口口口 |----|
24
口口口口 |①---|
口口口口 |②---|
①②③口 |③---|
口口口口 |----|
25
口口口口 |①---|
口③②① |②---|
口口口口 |③---|
口口口口 |----|
26
①口口② |①---|
③口口④ |②---|
口口口口 |③---|
口口口口 |④---|
27
口口口口 |①---|
口①①口 |②---|
口②②口 |③---|
口③③口 |----|
28
口口口口 |①---|
③口口口 |②---|
②口口口 |③---|
①口口口 |----|
29
口口口口 |①---|
口口口③ |②---|
口口口② |③---|
口口口① |----|
30
口口口口 |①---|
口③④口 |②---|
口①②口 |③---|
口口口口 |④---|
31
③口口③ |①---|
②口口② |②---|
①口口① |③---|
口口口口 |----|
32
口口口口 |①---|
口口口口 |②---|
口③②① |③---|
口口口口 |----|
33
口口口口 |①---|
①②③口 |②---|
口口口口 |③---|
口口口口 |----|
34
②口口① |①---|
④口口③ |②---|
口口口口 |③---|
口口口口 |④---|
35
口口口口 |①---|
口①①口 |②---|
口②②口 |③---|
口③③口 |----|
36
④③②① |①---|
口口口口 |②---|
口口口口 |③---|
口口口口 |④---|
37
口口口口 |①---|
①②③④ |②---|
口口口口 |③---|
口口口口 |④---|
38
口口口口 |①---|
口口口口 |②---|
④③②① |③---|
口口口口 |④---|
39
口口口口 |①---|
口口口口 |②---|
口口口口 |③---|
①②③④ |④---|
40
①②③④ |①---|
口口口口 |②---|
口口口口 |③---|
口口口口 |④---|
41
口口口口 |①---|
④③②① |②---|
口口口口 |③---|
口口口口 |④---|
42
口口口口 |①---|
口口口口 |②---|
①②③④ |③---|
口口口口 |④---|
43
口口口口 |①---|
口口口口 |②---|
口口口口 |③---|
④③②① |④---|
44
口①①口 |①---|
口②②口 |----|
口口口口 |②---|
口口口口 |----|
45
口口口口 |①---|
口口口口 |----|
口①①口 |②---|
口②②口 |----|
46
①口口① |①---|
②口口② |----|
口口口口 |②---|
口口口口 |----|
47
口口口口 |①---|
口口口口 |----|
①口口① |②---|
②口口② |----|
48
口①②口 |①---|
口③④口 |②---|
口口口口 |③---|
口口口口 |④---|
49
口口口口 |①---|
口口口口 |②---|
口①②口 |③---|
口③④口 |④---|
50
口口口口 |①---|
口口口口 |②---|
③口口④ |③---|
①口口② |④---|
51
③口口④ |①---|
①口口② |②---|
口口口口 |③---|
口口口口 |④---|
52
口①①口 |①---|
口口口口 |----|
口口口口 |----|
口口口口 |----|
53
口①②口 |①---|
口口口口 |----|
口②①口 |②---|
口口口口 |----|
54
口口口口 |①---|
③口口③ |②---|
②口口② |③---|
①口口① |----|
55
口口口口 |①---|
口①②口 |----|
口口口口 |②---|
口②①口 |----|
56
③口口③ |①---|
②口口② |②---|
①口口① |③---|
口口口口 |----|
57
口②①口 |①---|
口口口口 |----|
口①②口 |②---|
口口口口 |----|
58
口口口口 |①---|
③口口③ |②---|
②口口② |③---|
①口口① |----|
59
口口口口 |①---|
口②①口 |----|
口口口口 |②---|
口①②口 |----|
60
③口口③ |①---|
②口口② |②---|
①口口① |③---|
口口口口 |----|
61
口口口口 |①---|
口①②口 |②---|
口③④口 |③---|
口口口口 |④---|
62
口口口口 |①---|
③口口③ |②---|
②口口② |③---|
①口口① |----|
63
口口口口 |①---|
口③④口 |②---|
口①②口 |③---|
口口口口 |④---|
64
③口口③ |①---|
②口口② |②---|
①口口① |③---|
口口口口 |----|
65
口口口口 |①---|
③口口④ |②---|
①口口② |③---|
口口口口 |④---|
66
口③③口 |①---|
口②②口 |②---|
口①①口 |③---|
口口口口 |----|
67
口口口口 |①---|
③口口④ |②---|
口口口口 |③---|
①口口② |④---|
68
口④④口 |①---|
口③③口 |②---|
口②②口 |③---|
口①①口 |④---|
69
口口口口 |①---|
口口口③ |②---|
口口口② |③---|
口口口① |----|
70
口口口口 |①---|
③口口口 |②---|
②口口口 |③---|
①口口口 |----|
71
口口口口 |①---|
口④③口 |②---|
口②①口 |③---|
口口口口 |④---|
72
③口口③ |①---|
②口口② |②---|
①口口① |③---|
口口口口 |----|
73
口口口口 |①---|
口口口口 |②---|
①②③口 |③---|
口口口口 |----|
74
口口口口 |①---|
口③②① |②---|
口口口口 |③---|
口口口口 |----|
75
①口口② |①---|
③口口④ |②---|
口口口口 |③---|
口口口口 |④---|
76
口口口口 |①---|
口①①口 |②---|
口②②口 |③---|
口③③口 |----|
77
口口口口 |①---|
③口口口 |②---|
②口口口 |③---|
①口口口 |----|
78
口口口口 |①---|
口口口③ |②---|
口口口② |③---|
口口口① |----|
79
口口口口 |①---|
口③④口 |②---|
口①②口 |③---|
口口口口 |④---|
80
③口口③ |①---|
②口口② |②---|
①口口① |③---|
口口口口 |----|
81
口口口口 |①---|
口口口口 |②---|
口③②① |③---|
口口口口 |----|
82
口口口口 |①---|
①②③口 |②---|
口口口口 |③---|
口口口口 |----|
83
②口口① |①---|
④口口③ |②---|
口口口口 |③---|
口口口口 |④---|
84
口口口口 |①---|
口①①口 |②---|
口②②口 |③---|
口③③口 |----|
85
①口口① |①---|
口口口口 |----|
②口口② |②---|
口口口口 |----|
86
口口口口 |①---|
口③③口 |②---|
口②②口 |③---|
口①①口 |----|
87
口口口口 |①---|
①口口① |----|
口口口口 |②---|
②口口② |----|
88
口③③口 |①---|
口②②口 |②---|
口①①口 |③---|
口口口口 |----|
89
①口口② |①---|
口口口口 |②---|
③口口④ |③---|
口口口口 |④---|
90
口③③口 |①---|
口②②口 |②---|
口①①口 |③---|
口口口口 |----|
91
口口口口 |①---|
①口口② |②---|
口口口口 |③---|
③口口④ |④---|
92
口④④口 |①---|
口③③口 |②---|
口②②口 |③---|
口①①口 |④---|

accuracy: 100%
最終更新:2023年07月23日 02:41