アットウィキロゴ
Chewingood!!!
TORIENA

ADVANCED

Level: 7
BPM: 190
Notes: 555

1
口口口口 |----|
口口口口 |----|
口口口口 |----|
口口口口 |----|
2
①口口口 |①---|
口口口口 |②---|
口③②口 |③---|
口口④口 |④---|
3
口口口口 |①---|
①口口④ |②---|
口口口口 |③---|
口③口② |④---|
4
口①口口 |①---|
口③②口 |②---|
口口口④ |③---|
口口口口 |④---|
5
口口②④ |①---|
口口口口 |②---|
③口口口 |③---|
①口口口 |④---|
6
①口口口 |①---|
口口口口 |②---|
口③口② |③---|
口口④口 |④---|
7
口①口④ |①---|
口口口口 |②---|
口口②口 |③---|
③口口口 |④---|
8
口口②口 |①---|
①口口④ |②---|
口口口口 |③---|
口③口口 |④---|
9
口口口口 |①---|
口③④口 |②---|
①口口口 |③---|
口口口② |④---|
10
①①口口 |①---|
③③口② |②---|
口口口口 |③---|
口口④口 |④---|
11
口口②口 |①---|
口口口口 |②---|
①①口口 |③---|
③③口④ |④---|
12
①①口口 |①---|
③③②口 |②---|
口口口④ |③---|
口口口口 |④---|
13
口口口② |①---|
口口口口 |②---|
①①④口 |③---|
③③口口 |④---|
14
①①②② |①---|
③③④④ |②---|
口口口口 |③---|
口口口口 |④---|
15
口口口口 |①---|
口口口口 |②---|
①①②② |③---|
③③④④ |④---|
16
口①②口 |①-②-|
口③④口 |③-④-|
口⑤⑥口 |⑤-⑥-|
口⑦⑧口 |⑦-⑧-|
17
⑦口口⑧ |①-②-|
⑤口口⑥ |③-④-|
③口口④ |⑤-⑥-|
①口口② |⑦-⑧-|
18
口①①口 |①---|
口口口口 |----|
口②②口 |②---|
口口口口 |----|
19
④口②口 |①---|
口③口① |②---|
口口口口 |③---|
口口口口 |④---|
20
口口口口 |①-②-|
⑥⑦⑤口 |③-④-|
③④②① |⑤---|
口口口口 |⑥-⑦-|
21
④③②① |①-②-|
口口口口 |③-④-|
口口⑤口 |⑤---|
⑥口口⑦ |⑥-⑦-|
22
口口④口 |①-②-|
①⑥口② |③-④-|
⑤③⑦口 |--⑤-|
口口口口 |⑥-⑦-|
23
①②③④ |①-②-|
口口口口 |③-④-|
口⑤口口 |⑤---|
口⑥口口 |⑥---|
24
口口口口 |①---|
①口口口 |②-③-|
口④③② |④---|
⑤口口口 |⑤---|
25
⑥口口⑥ |①---|
口②④① |②-③-|
口③⑤口 |④-⑤-|
口口口口 |⑥---|
26
口口口口 |①---|
①口口① |②---|
②口口② |③---|
③④⑤③ |④-⑤-|
27
口⑤口⑥ |①-②-|
口③④⑥ |③-④-|
口①②口 |⑤---|
口口口口 |⑥---|
28
口口⑤口 |①-②-|
口口口口 |③---|
①②③口 |④---|
④口口口 |⑤---|
29
⑥口口口 |①-②-|
①②③④ |③-④-|
⑤口口口 |⑤---|
口口口口 |⑥---|
30
口④④口 |①-②-|
口③③口 |--③-|
⑤②②口 |--④-|
口口口① |--⑤-|
31
④口⑤⑤ |①-②-|
②口口③ |③-④-|
口口口① |⑤---|
⑥⑥口口 |⑥---|
32
③口口口 |①---|
口口①④ |②-③-|
口②口⑤ |--④-|
口口口⑥ |⑤-⑥-|
33
口③口口 |①-②-|
①④④口 |③---|
⑤口②口 |④---|
口口口口 |--⑤-|
34
口⑤④口 |①-②-|
口⑦⑥口 |③---|
口①②③ |④-⑤-|
口口口口 |⑥-⑦-|
35
口口口口 |①-②-|
口口口口 |③---|
口②①口 |④---|
④口③④ |----|
36
口口②① |①---|
③④口口 |②---|
口口口口 |③---|
口口口口 |④---|
37
⑤口口口 |①---|
口口口口 |②---|
④③②① |③---|
口口口口 |④-⑤-|
38
口口②① |①---|
③④口口 |②---|
口口口口 |③---|
口口口口 |④---|
39
③口口口 |①---|
④口口口 |②---|
⑤口②① |③-④-|
⑥口口口 |⑤-⑥-|
40
口口②① |①---|
③④口口 |②---|
口口口口 |③---|
口口口口 |④---|
41
⑤口口口 |①---|
口口口口 |②---|
④③②① |③---|
口口口口 |④-⑤-|
42
口口②① |①---|
③④口口 |②---|
口口口口 |③---|
口口口口 |④---|
43
③口口口 |①---|
④口口口 |②---|
⑤口②① |③-④-|
⑥口口口 |⑤-⑥-|
44
口口②① |①---|
③④口① |②---|
口口口口 |③---|
口口口口 |④---|
45
⑤口口口 |①---|
口口口口 |②---|
④③②① |③---|
口口口① |④-⑤-|
46
口口②① |①---|
③④口① |②---|
口口口口 |③---|
口口口口 |④---|
47
③口口口 |①---|
④口口口 |②---|
⑤口②① |③-④-|
⑥口口① |⑤-⑥-|
48
③④②① |①---|
③④②① |②---|
口口口口 |③---|
口口口口 |④---|
49
⑤口口口 |①---|
口口口口 |②---|
④③②① |③---|
口③②① |④-⑤-|
50
口②①口 |①-②-|
口④③口 |③-④-|
口⑥⑤口 |⑤-⑥-|
口⑧⑦口 |⑦-⑧-|
51
⑧口口⑦ |①-②-|
⑥口口⑤ |③-④-|
④口口③ |⑤-⑥-|
②口口① |⑦-⑧-|
52
口②口口 |①---|
口⑤⑤口 |②---|
④①①口 |③-④-|
口口口③ |⑤---|
53
口口②口 |①---|
口口口④ |②---|
口③口口 |③-④-|
⑤①口口 |--⑤-|
54
④口口口 |--①-|
②口③口 |②-③-|
口口①口 |④---|
口口口口 |----|
55
口②口口 |①---|
④口口口 |②---|
口口③口 |③-④-|
口口①⑤ |--⑤-|
56
口口口④ |--①-|
口③口② |②-③-|
口①口口 |④---|
口口口口 |----|
57
口口②口 |①---|
口口口④ |②---|
口③口口 |③-④-|
⑤①口口 |--⑤-|
58
④口口口 |--①-|
②口③口 |②-③-|
口口①口 |④---|
口口口口 |----|
59
口②口口 |①---|
④口口口 |②---|
口口③口 |③-④-|
口口①⑤ |--⑤-|
60
口口④④ |--①-|
口③口② |②-③-|
口①口口 |④---|
⑤⑤口口 |⑤---|
61
口②口口 |①---|
口口口④ |②---|
口③口口 |③-④-|
⑤⑤①① |--⑤-|
62
④④口口 |--①-|
②②③口 |②-③-|
口口①口 |④---|
口口口口 |----|
63
口口②口 |①---|
④口口口 |②---|
口口③口 |③-④-|
①①⑤⑤ |--⑤-|
64
口口④④ |--①-|
口③②② |②-③-|
口①口口 |④---|
口口口口 |----|
65
口②口口 |①---|
口口口④ |②---|
口③口口 |③-④-|
⑤⑤①① |--⑤-|
66
④④口口 |--①-|
②②③口 |②-③-|
口口①口 |④---|
口口口口 |----|
67
口口②口 |①---|
④口口口 |②---|
口口③口 |③-④-|
①①⑤⑤ |--⑤-|
68
口口④④ |--①-|
口③②② |②-③-|
口①口口 |④---|
⑤⑤口口 |⑤---|
69
口口口口 |①-②-|
⑥⑦⑤口 |③-④-|
③④②① |⑤---|
口口口① |⑥-⑦-|
70
④③②① |①-②-|
口口口口 |③-④-|
口口⑤口 |⑤---|
⑥口⑤⑦ |⑥-⑦-|
71
口口④④ |①-②-|
①⑥口② |③-④-|
⑤③⑦口 |--⑤-|
口口口口 |⑥-⑦-|
72
①②③④ |①-②-|
口口口口 |③-④-|
⑤⑤口口 |⑤---|
口⑥⑥口 |⑥---|
73
口口口口 |①---|
①①口口 |②-③-|
口④③② |④---|
⑤口口口 |⑤---|
74
⑥口口⑥ |①---|
口②④① |②-③-|
口③⑤口 |④-⑤-|
口口口口 |⑥---|
75
口口口口 |①---|
①口口① |②---|
②口口② |③---|
③④⑤③ |④-⑤-|
76
口⑤口⑥ |①-②-|
口③④⑥ |③-④-|
口①②口 |⑤---|
口口口口 |⑥---|
77
口口⑤⑤ |①-②-|
口口口口 |③---|
①②③口 |④---|
④④口口 |⑤---|
78
⑥口口口 |①-②-|
①②③④ |③-④-|
⑤口口口 |⑤---|
口口口口 |⑥---|
79
口④④口 |①-②-|
口③③口 |--③-|
⑤②②口 |--④-|
口口口① |--⑤-|
80
④口⑤⑤ |①-②-|
②口口③ |③-④-|
口口口① |⑤---|
⑥⑥口口 |⑥---|
81
③口口口 |①---|
口口①④ |②-③-|
口②口⑤ |--④-|
口口口⑥ |⑤-⑥-|
82
口③口口 |①-②-|
①④④口 |③---|
⑤口②口 |④---|
口口口口 |--⑤-|
83
口⑤④口 |①-②-|
口⑦⑥口 |③---|
口①②③ |④-⑤-|
口口口口 |⑥-⑦-|
84
口口口口 |①-②-|
口口口口 |③---|
口②①口 |④---|
④口③④ |----|
85
口口②口 |①---|
口口口④ |②---|
口③口口 |③-④-|
⑤①口口 |--⑤-|
86
④口口口 |--①-|
②口③口 |②-③-|
口口①口 |④---|
口口口口 |----|
87
口②口口 |①---|
④口口口 |②---|
口口③口 |③-④-|
口口①⑤ |--⑤-|
88
口口口④ |--①-|
口③口② |②-③-|
口①口口 |④---|
口口口口 |----|
89
口②口口 |①---|
口口口④ |②---|
口③口口 |③-④-|
⑤⑤①① |--⑤-|
90
④④口口 |--①-|
②②③口 |②-③-|
口口①口 |④---|
口口口口 |----|
91
口口②口 |①---|
④口口口 |②---|
口口③口 |③-④-|
①①⑤⑤ |--⑤-|
92
口④④④ |--①-|
口③②② |②-③-|
口①口口 |④---|
⑤⑤⑤口 |⑤---|

accuracy: 100%
最終更新:2023年07月23日 02:55