アットウィキロゴ
Chewingood!!!
TORIENA

EXTREME

Level: 9.0
BPM: 190
Notes: 802

1
口口口口 |----|
口口口口 |----|
口口口口 |----|
口口口口 |----|
2
①口口② |①-②-|
口⑤⑥口 |③-④-|
③口口④ |⑤-⑥-|
口⑦⑧口 |⑦-⑧-|
3
口⑦⑧口 |①-②-|
①口口② |③-④-|
口⑤⑥口 |⑤-⑥-|
③口口④ |⑦-⑧-|
4
①口口② |①-②-|
口⑤⑥口 |③-④-|
③口口④ |⑤-⑥-|
口⑦⑧口 |⑦-⑧-|
5
口⑤⑥口 |①-②-|
③口口④ |③-④-|
口⑦⑧口 |⑤-⑥-|
①口口② |⑦-⑧-|
6
①口口② |①-②-|
口⑤⑥口 |③-④-|
③口口④ |⑤-⑥-|
口⑦⑧口 |⑦-⑧-|
7
口⑦⑧口 |①-②-|
①口口② |③-④-|
口⑤⑥口 |⑤-⑥-|
③口口④ |⑦-⑧-|
8
①口口② |①-②-|
口⑤⑥口 |③-④-|
③口口④ |⑤-⑥-|
口⑦⑧口 |⑦-⑧-|
9
口口⑦口 |①-②-|
③口口④ |③-④-|
口⑥⑤口 |--⑤-|
①口口② |⑥-⑦-|
10
①①口口 |①-②-|
⑤⑤②口 |③-④-|
口口⑥口 |⑤-⑥-|
③⑦④⑧ |⑦-⑧-|
11
①①⑧口 |①-②-|
口口②口 |③-④-|
⑤⑤⑥口 |⑤-⑥-|
③⑦④口 |⑦-⑧-|
12
⑤⑤口口 |①-②-|
①①⑥② |③-④-|
口口口口 |⑤-⑥-|
③⑦④⑧ |⑦-⑧-|
13
口口口④ |①-②-|
①①⑥口 |③-④-|
⑤⑤②⑧ |⑤-⑥-|
③⑦口口 |⑦-⑧-|
14
①①②口 |①-②-|
③③口⑥ |③-④-|
⑤⑤④口 |⑤-⑥-|
⑦⑦⑧口 |⑦-⑧-|
15
①①口⑧ |①-②-|
③③②口 |③-④-|
⑤⑤口⑥ |⑤-⑥-|
⑦⑦口④ |⑦-⑧-|
16
口①②口 |①-②-|
口③④口 |③-④-|
口⑤⑥口 |⑤-⑥-|
口⑦⑧口 |⑦-⑧-|
17
①⑨⑬② |①②③④|
③⑩⑭④ |⑤⑥⑦⑧|
⑤⑪⑮⑥ |⑨⑩⑪⑫|
⑦⑫⑯⑧ |⑬⑭⑮⑯|
18
①⑥⑤④ |①---|
①口口口 |②---|
口口口② |③-④-|
③口口口 |⑤-⑥-|
19
口口口⑨ |①-②-|
口⑧⑦⑥ |③-④-|
⑤②④口 |⑤-⑥⑦|
口①③口 |⑧-⑨-|
20
口口④口 |①-②-|
口口⑦口 |③-④-|
口②③⑥ |⑤---|
①⑤口口 |⑥-⑦-|
21
②口④口 |①-②-|
口①口③ |③-④-|
口⑦口口 |⑤---|
⑥⑤口口 |⑥-⑦-|
22
④④口口 |①-②-|
口⑥口② |③-④-|
③口①口 |--⑤-|
⑦口⑤口 |⑥-⑦-|
23
口⑤⑤① |①-②-|
④口②口 |③-④-|
口③口口 |⑤---|
⑥口口口 |⑥---|
24
口口口口 |①---|
口①①口 |②-③-|
⑤⑥③② |④---|
口④口口 |⑤-⑥-|
25
⑦⑦口⑤ |①-②-|
③口①② |③-④-|
口口口⑥ |⑤-⑥-|
④口口口 |⑦---|
26
口口口⑤ |①---|
口④①① |②---|
②②口口 |③---|
口口③③ |④-⑤-|
27
口口口口 |①-②-|
⑥口①④ |③-④-|
口②口口 |⑤---|
③⑤口口 |⑥---|
28
⑤③③口 |①-②-|
口⑥①口 |③---|
⑦口口口 |④-⑤-|
②④④口 |⑥-⑦-|
29
口口⑤口 |①-②-|
④口⑦口 |③-④-|
⑧③②口 |⑤-⑥-|
⑥口口① |⑦-⑧-|
30
④②④① |①-②-|
④②④③ |--③-|
口②③③ |--④-|
⑤②③③ |--⑤-|
31
口③口④ |①-②-|
⑥②口⑤ |③-④-|
①口口口 |⑤---|
⑥口口⑤ |⑥---|
32
①③①③ |①---|
口口④口 |②-③-|
②⑤口口 |--④-|
口口⑥口 |⑤-⑥-|
33
口口①③ |①-②-|
④②口口 |③---|
口口口③ |④---|
④⑤口口 |--⑤-|
34
口口④③ |①-②-|
⑤口②口 |③---|
①口⑥口 |④-⑤-|
口口⑦口 |⑥-⑦-|
35
口口口口 |①-②-|
口①③③ |③---|
④④口口 |④---|
口口口② |----|
36
口口①① |①---|
③③②② |②---|
口口口口 |③---|
④④口口 |④---|
37
④⑤口口 |①---|
口口口口 |②---|
③③②② |③---|
口口①① |④-⑤-|
38
口口①① |①---|
口口②② |②---|
③③口口 |③---|
④④口口 |④---|
39
口口口口 |①---|
⑥⑤④③ |②---|
口口②② |③-④-|
口口①① |⑤-⑥-|
40
口口①① |①---|
口口口口 |②---|
③③②② |③---|
④④口口 |④---|
41
④⑤口口 |①---|
③③②② |②---|
口口口口 |③---|
口口①① |④-⑤-|
42
口口①① |①---|
③③口口 |②---|
口口②② |③---|
④④口口 |④---|
43
口口口口 |①---|
口口②② |②---|
⑥⑤④③ |③-④-|
口口①① |⑤-⑥-|
44
①①口① |①---|
③③口② |②---|
口口③口 |③---|
口口④口 |④---|
45
口口⑤口 |①---|
口口③口 |②---|
①①④② |③---|
③③口① |④-⑤-|
46
①①口① |①---|
③③③② |②---|
口口④口 |③---|
口口口口 |④---|
47
口口②口 |①---|
口口口③ |②---|
①①口① |③-④-|
③④⑤⑥ |⑤-⑥-|
48
①①口① |①---|
②②②口 |②---|
③③口③ |③---|
④④④口 |④---|
49
①①①口 |①---|
②②⑤② |②---|
③③③口 |③---|
④④口④ |④-⑤-|
50
①②口① |①-②-|
③④口③ |③-④-|
⑤⑥口⑤ |⑤-⑥-|
⑦⑧口⑦ |⑦-⑧-|
51
①②③④ |①②③④|
⑤⑥⑦⑧ |⑤⑥⑦⑧|
⑨⑩⑪⑫ |⑨⑩⑪⑫|
⑬⑭⑮⑯ |⑬⑭⑮⑯|
52
③①①② |①---|
口⑤⑤口 |②---|
口口口④ |③-④-|
口口口口 |⑤---|
53
③③口口 |①---|
口口口② |②---|
①①④口 |③-④-|
口⑤口口 |--⑤-|
54
④口口口 |--①-|
②口口③ |②-③-|
④口口口 |④---|
②口①口 |----|
55
口口③③ |①---|
②口口口 |②---|
口④①① |③-④-|
口口⑤口 |--⑤-|
56
口口口④ |--①-|
③口口② |②-③-|
口口口④ |④---|
口①口② |----|
57
③③口口 |①---|
口口口② |②---|
①①④口 |③-④-|
口⑤口口 |--⑤-|
58
④口口口 |--①-|
②口口③ |②-③-|
④口口口 |④---|
②口①口 |----|
59
口口③③ |①---|
②口口口 |②---|
口④①① |③-④-|
口口⑤口 |--⑤-|
60
口④口④ |--①-|
③口口② |②-③-|
口口口口 |④---|
⑤①⑤② |⑤---|
61
口口口口 |①---|
口口口② |②---|
①①口口
口①口口

③③口口
口③口口
口口④口 |③-④-|
口⑤口口 |--⑤-|
62
④口口口 |--①-|
②④口③ |②-③-|
④②口口 |④---|
②口①口 |----|
63
口口口口 |①---|
②口口口 |②---|
口口①①
口口①口

口口③③
口口③口
口④口口 |③-④-|
口口⑤口 |--⑤-|
64
口口口④ |--①-|
③口④② |②-③-|
口口②④ |④---|
口①口② |----|
65
口口口口 |①---|
口口口② |②---|
①①口口
口①口口

③③口口
口③口口
口口④口 |③-④-|
口⑤口口 |--⑤-|
66
④口口口 |--①-|
②④口③ |②-③-|
④②口口 |④---|
②口①口 |----|
67
口口口口 |①---|
②口口口 |②---|
口口①①
口口①口

口口③③
口口③口
口④口口 |③-④-|
口口⑤口 |--⑤-|
68
口④口④ |--①-|
③口④② |②-③-|
口⑤②口 |④---|
⑤①⑤② |⑤---|
69
口口口口 |①-②-|
④③口⑤ |③-④-|
①⑦②① |⑤---|
⑥口口口 |⑥-⑦-|
70
③口口口 |①-②-|
口④②口 |③-④-|
⑦口⑤① |⑤---|
口⑥口口 |⑥-⑦-|
71
⑥④④⑥ |①-②-|
口口口② |③-④-|
⑦③口⑤ |--⑤-|
口口①口 |⑥-⑦-|
72
口口③口 |①-②-|
口①口口 |③-④-|
口④②口 |⑤---|
⑥⑤⑤⑥ |⑥---|
73
口口口口 |①---|
①口口① |②-③-|
⑤口③② |④---|
口④⑥口 |⑤-⑥-|
74
②口⑦⑦ |①-②-|
口③⑤⑦ |③-④-|
口①口口 |⑤-⑥-|
⑥口口④ |⑦---|
75
①①口口 |①---|
①口⑤口 |②---|
③④口② |③---|
③③②② |④-⑤-|
76
①口④④ |①-②-|
⑥③口口 |③-④-|
⑥口⑤⑤ |⑤---|
口口口② |⑥---|
77
⑤③③口 |①-②-|
口⑥①口 |③---|
⑦口口口 |④-⑤-|
②④④口 |⑥-⑦-|
78
口口⑤口 |①-②-|
④口⑦口 |③-④-|
⑧③②口 |⑤-⑥-|
⑥口口① |⑦-⑧-|
79
④②④① |①-②-|
④②④③ |--③-|
口②③③ |--④-|
⑤②③③ |--⑤-|
80
口③口④ |①-②-|
⑥②口⑤ |③-④-|
①⑥⑤口 |⑤---|
⑥口口⑤ |⑥---|
81
①③①③ |①---|
口口④口 |②-③-|
②⑤口口 |--④-|
口口⑥口 |⑤-⑥-|
82
口口①③ |①-②-|
④②口口 |③---|
口口口③ |④---|
④⑤口口 |--⑤-|
83
口口④③ |①-②-|
⑤口②口 |③---|
①口⑥口 |④-⑤-|
口口⑦口 |⑥-⑦-|
84
口口口口 |①-②-|
口①③③ |③---|
④④口口 |④---|
口口口② |----|
85
①①口① |①---|
③③④③ |②---|
口口②① |③-④-|
口口⑤③ |--⑤-|
86
口口口口 |①-②-|
口口⑤④ |③-④-|
①①③② |⑤---|
⑤⑤口口 |----|
87
①①口① |①---|
③③④③ |②---|
口口②① |③-④-|
口口⑤③ |--⑤-|
88
口口口口 |①-②-|
口口⑤④ |③-④-|
①①③② |⑤---|
⑤⑤口口 |----|
89
①①口① |①---|
②②④③ |②---|
③③②① |③-④-|
⑤⑤⑥③ |⑤-⑥-|
90
①①口口 |①-②-|
③③⑤④ |③-④-|
⑤⑤③② |⑤---|
⑥⑥口口 |⑥---|
91
①⑦⑥② |①-②-|
③口口④ |③-④-|
口⑤⑧口 |⑤-⑥-|
口口口口 |⑦-⑧-|
92
⑦⑩⑩⑧ |①②③④|
⑤⑨⑩⑥ |⑤⑥⑦⑧|
③⑨口④ |⑨---|
①⑨⑨② |⑩---|

accuracy: 100%
最終更新:2023年07月23日 03:08