アットウィキロゴ
BPM:132
1
□⑤⑤□ |①②③④|
⑦⑦②① |⑤---|
④③□□ |⑥-⑦-|
⑥⑥□⑥ |----|
2
②②□□ |①-②-|
□□①□ |③--④|
①①□③ |⑤---|
□□□□ |⑥--⑦|

□⑦⑦④
□□□|
⑥⑥□|
⑤⑤□∧

□□□7
□□□□
□□□□
□□□□
3
□□□⑤ |----|
②②□③ |----|
□□④□ |①-②-|
①①□② |③-④⑤|
4
②②□□ |①-②-|
□□④□ |③-④⑤|
①①□③ |⑥---|
□□□□ |⑦--⑧|

□□∨□
□□|□
⑦⑦|□
⑥⑥⑤□

□⑧⑧□
□□□□
□□□□
□□8□
5
□□□③ |----|
①①□□ |----|
□□□□ |①-②-|
②②□□ |③---|
6
①①①□ |①-②-|
□□□□ |③---|
②②③□ |④---|
④④④④ |⑤⑥-⑦|

⑦□□□
□□□□
⑤⑤□⑥
□□□□
7
□□①① |①---|
④④②⑤ |②---|
□□②□ |③-④-|
③③□④ |⑤-⑥⑦|

□□□⑦
□□□□
□□⑥□
□□□□
8
②②□□ |①-②-|
□□④□ |③-④⑤|
①①□③ |⑥---|
□□□□ |⑦---|

□□∨□
□□|□
⑦⑦|□
⑥⑥⑤□
9
②②□⑥ |①---|
①①⑤□ |②---|
□□□④ |③-④-|
③③2□ |⑤-⑥-|
10
□□□□ |①---|
□①□③ |----|
②②①□ |②-③-|
□□□④ |④-⑤⑥|

□⑥⑥□
□□□□
□□⑤□
□□□□
11
□□□④ |----|
□④□③ |----|
□③□② |①-②-|
①②□□ |③-④-|
12
③□□⑥ |--①-|
②⑥③⑤ |②-③-|
①⑤②④ |--④-|
□④①□ |⑤-⑥-|
13
□①②⑦ |①-②-|
□□□□ |③---|
④④⑥⑤ |④-⑤-|
□③③□ |⑥-⑦-|
14
□⑥⑥□ |①---|
①①□③ |----|
②②⑤□ |②-③-|
□□□④ |④-⑤⑥|
15
□□□□ |----|
□□□□ |----|
□□②□ |①--②|
①①□① |--③-|

□□□③
□□□|
□□□|
□□□∧
16
□□②□ |①-②-|
□□|□ |----|
①①|□ |③---|
□□∧□ |④---|

□□□□
□□□□
④④□□
③③□□
17
②②□□ |①---|
①①□□ |②---|
⑤⑥□□ |③-④-|
③④□□ |⑤-⑥-|
18
③④44 |①-②-|
①②□□ |③-④-|
□□□□ |⑤---|
⑤⑥□□ |⑥---|
19
⑥□□⑤ |①②③④|
②③④⑤ |⑤---|
⑥□⑦⑤ |⑥---|
□□①□ |⑦---|
20
□④③② |①②③④|
⑥⑦⑧⑩ |⑤⑥⑦⑧|
⑪□□⑨ |⑨--⑩|
⑨①⑤□ |⑪-⑫-|

□□□⑫
□□□□
□□□□
□□□□
21
□□②□ |①②--|
□③③□ |③---|
□□□□ |④---|
④①□④ |⑤---|

□□⑤⑤
□□□□
□□□□
□□□□
22
⑥⑦⑧□ |①②③④|
□④③② |⑤⑥⑦⑧|
□⑫⑪⑩ |⑨⑩⑪⑫|
⑨①⑤□ |⑬⑭⑮⑯|

□□□□
⑭⑮⑯□
□□□□
□□□⑬
23
⑤⑤□□ |①②③④|
□□□④ |⑤---|
③□□□ |⑥---|
⑥①②□ |⑦---|

□□□□
□□□□
⑦□□⑦
□□□□
24
□④③② |①②③④|
⑥⑦⑧⑩ |⑤⑥⑦⑧|
⑪□□⑨ |⑨--⑩|
⑨①⑤□ |⑪-⑫-|

□□□⑫
□□□□
□□□□
□□□□
25
□□②□ |①②--|
□③③□ |③---|
⑤□□⑤ |④---|
④①□□ |⑤---|
26
①②□□ |①②③④|
⑤⑥④③ |⑤⑥⑦⑧|
⑩⑩⑧⑦ |⑨---|
⑨⑨□□ |⑩---|
27
②②□⑥ |①---|
①①⑤□ |②---|
□⑤□④ |③-④-|
③□□□ |⑤-⑥-|
28
□□⑦□ |①---|
□①⑥④ |②---|
②⑤①□ |③-④-|
③□□⑤ |⑤-⑥⑦|
29
①□□⑥ |①---|
□②□⑤ |②---|
⑤□□④ |③-④-|
③□□□ |⑤-⑥-|
30
⑦□□⑧ |①-②-|
⑤③④⑦ |③-④-|
□①③⑥ |⑤-⑥-|
□□②□ |⑦-⑧-|
31
□①②⑦ |①-②-|
□⑥□□ |③---|
□□⑥⑤ |④-⑤-|
④③③□ |⑥-⑦-|
32
□□□□ |①---|
□□①④ |②---|
□①□□ |③-④-|
③②□□ |⑤-⑥⑦|

□□⑦□
□□⑥□
□⑤□□
□□□⑤
33
①□□□ |①---|
□□□□ |②---|
②⑤④□ |③--④|
③□□③ |⑤-⑥-|

□□□⑥
□□□|
□□□|
□□□∧
34
□③②□ |①-②-|
①□|□ |③---|
⑤⑤|□ |④---|
④④∧□ |⑤---|
35
②②33 |①---|
①①□□ |②---|
□□□□ |③---|
③□④□ |--④-|
36
⑤⑤□④ |①-②-|
□□②| |③-④-|
□①□| |⑤---|
□③□∧ |----|
37
□□□1 |----|
□□□□ |----|
①①□□ |①---|
□□□□ |----|
38
□□□□ |--①-|
□□□□ |-②--|
□□①□ |③---|
□□□② |----|

□□□□
□□□③
□□□|
③③□∧
39
□□②< |----|
②②□1 |①---|
□□□□ |②---|
□④□□ |③-④-|

□□3□
□□□□
□□□□
□□□□
40
□□□② |①--②|
□□□□ |--③-|
□□①□ |④---|
□□□□ |----|

④④□□
□□③□
□□|□
□□∧□
41
□□□② |----|
①①1□ |----|
□□□□ |①---|
□□□□ |--②-|
42
□□□□ |--①-|
□□□① |②-③-|
□□③□ |④---|
□□□② |----|

□□□④
□□□|
④④□|
□□□∧
43
□□□□ |①---|
□□①□ |----|
□□|□ |②---|
②②∧□ |----|
44
②□□1 |①---|
□□1□ |----|
□□□② |②--③|
□□□□ |④-⑤-|

□□□⑤
④□③□
□□□□
□□□□
45
□□②□ |①-②-|
□□□□ |③---|
①⑥⑦□ |④-⑤-|
③④⑤□ |⑥-⑦-|
46
⑪③④⑫ |①-②-|
⑨①②⑩ |③-④-|
⑦□□⑧ |⑤⑥⑦⑧|
⑤□□⑥ |⑨⑩⑪⑫|
47
□⑦⑧□ |①②③④|
□⑤⑥□ |⑤⑥⑦⑧|
⑨③④⑩ |⑨-⑩-|
⑨①②⑩ |⑪-⑫-|

□□□□
⑪□□⑫
□⑪⑫□
□□□□
48
①②③④ |①②③④|
⑥⑤⑤⑥ |⑤---|
⑥□□⑥ |⑥---|
□□□□ |⑦---|

□⑦⑦□
□□□□
□□□□
□□□□
49
□□□⑧ |①②③④|
⑨⑥⑦④ |⑤⑥⑦⑧|
⑤②③□ |⑨-⑩⑪|
①⑨□□ |-⑫⑬-|

⑪□⑩□
□□□□
⑬⑪□⑫
⑬□□□
50
⑧②⑧⑦ |①②-③|
④②⑥① |④⑤⑥⑦|
□⑤③□ |--⑧-|
□□□□ |⑨⑩⑪⑫|

□□□□
□□□⑫
⑨□⑪□
□⑩□□
51
④①④① |--①-|
②□②□ |②-③-|
□③□③ |④-⑤-|
□□□□ |⑥-⑦-|

□⑥□⑥
□□□□
□□□□
⑦⑤⑦⑤
52
⑧⑧□⑥ |①②③④|
④□□① |-⑤⑥⑦|
⑦③②⑤ |⑧---|
□⑨⑨□ |⑨---|
53
□③②⑧ |①-②③|
□①①④ |④⑤⑥⑦|
□⑥⑤⑧ |⑧-⑨⑩|
⑦□□□ |-⑪--|

⑨□□□
⑪□⑩□
⑪□□□
□□⑩□
54
⑤④③② |①--②③④|
□⑦□⑧ |⑤⑥⑦⑧|
□①①⑥ |⑨⑩⑪⑫|
□□□□ |⑬⑭⑮⑯|

□⑮⑯□
⑬□⑫□
⑨□□□
□⑪⑩⑭ 
55
□□□① |--①-|
⑦⑤④③ |②③④⑤|
□□①⑥ |⑥--⑦|
②⑦□⑥ |---⑧⑨⑩|

□⑩⑨⑧
□□□□
□□□□
□□□□
56
①□□□ |①--②③④|
⑥□⑦⑦ |⑤---|
②③④⑤ |⑥---|
⑥□□□ |⑦---|
57
□④③② |①②③④|
⑥⑦⑧□ |⑤⑥⑦⑧|
①⑨□⑤ |⑨--⑩|
⑨①⑤□ |⑪-⑫-|

□□□⑫
□□□⑩
⑪□□□
□□□□
58
□⑥②⑧ |①②--|
④③③□ |③---|
□□⑦□ |④-⑤-|
④①□⑤ |⑥-⑦⑧|
59
⑥⑦⑧□ |①②③④|
□④③② |⑤⑥⑦⑧|
□⑫⑪⑩ |⑨⑩⑪⑫|
⑨①⑤□ |⑬⑭⑮⑯|

□□□□
⑭⑮⑯□
□□□□
□□□⑬
60
⑤⑤□□ |①②③④|
□□□④ |⑤---|
③□□□ |⑥---|
⑥①②□ |⑦---|

□□□□
□□⑦□
⑦□□⑦
□□□□
61
□④③② |①②③④|
⑥⑦⑧□ |⑤⑥⑦⑧|
□①⑤□ |⑨-⑩-|
□①⑤□ |⑪⑫⑬⑭|

□□⑫□
□□□□
⑪⑬⑭⑨
⑨⑩□□
62
③④□□ |①-②-|
①②③① |③-④-|
⑥□□⑦ |⑤-⑥-|
⑤⑥⑦□ |⑦-⑧⑨|

⑨□□□
□□□□
□□□□
□□□⑧
63
□□②① |①②③④|
③④⑥⑤ |⑤⑥⑦⑧|
⑦⑧□□ |⑨---|
□⑨⑨□ |⑩⑪⑫⑬|

□⑬⑫⑪
□□□□
□□□□
⑩□□□
64
□□□□ |①②③④|
⑫④②① |⑤⑥⑦⑧|
③⑪⑩⑤ |⑨⑩⑪⑫|
⑧⑦⑥⑨ |⑬⑭⑮⑯|

⑯□□□
□⑮⑭⑬
□□□□
□□□□
65
□④②① |①②③④|
⑧⑨⑨□ |⑤⑥⑦⑧|
③⑨⑨⑤ |⑨---|
□⑦⑥□ |----|
66
□□□□ |----|
□□□□ |----|
□□□□ |----|
□□□□ |----|
最終更新:2022年10月19日 02:02