アットウィキロゴ
Slipstream
lapix

BASIC

Level: 5
BPM: 175
Notes: 512

1
口口口口 |----|
口口口口 |----|
口口口口 |----|
口口口口 |----|
2
①口口口 |----|
口口口② |①---|
③口口口 |②---|
口口口口 |③---|
3
口④口口 |①---|
口口③口 |②---|
口②口口 |③---|
口口①① |④---|
4
口口④口 |①---|
口③口口 |②---|
口口②口 |③---|
口①口口 |④---|
5
④口口口 |①---|
口口口③ |②---|
②口口口 |③---|
口口口① |④---|
6
口口口④ |①---|
③口口口 |②---|
口口口② |③---|
①口口口 |④---|
7
口①①口 |①---|
口口②口 |②---|
口③口口 |③---|
口口④口 |④---|
8
①口口① |①---|
口口口② |②---|
③口口口 |③---|
口口口④ |④---|
9
③①①③ |①---|
口口口口 |②---|
口②④口 |③---|
口口口口 |④---|
10
口①①口 |①---|
口②口口 |②---|
口口口③ |③---|
口④口口 |④---|
11
④④④④ |①---|
口口口口 |②---|
口③口口 |③---|
口口①② |④---|
12
口口口口 |①---|
口口口口 |----|
①口口② |②---|
口①②口 |----|
13
口①②口 |①---|
①口口② |----|
口口口口 |②---|
口口口口 |----|
14
①口口① |①---|
口②②口 |②---|
口③③口 |③---|
④口口④ |④---|
15
口①①口 |①---|
②口口② |②---|
③口口③ |③---|
口④④口 |④---|
16
①口②② |①---|
③①④④ |②---|
口③口口 |③---|
口口口口 |④---|
17
口口口口 |①---|
③口④④ |②---|
①③②② |③---|
口①口口 |④---|
18
③③口④ |①---|
口口口口 |②---|
口口口口 |③---|
①①②② |④---|
19
口④④口 |①---|
口口③③ |②---|
口②②口 |③---|
①①口口 |④---|
20
口口口口 |①---|
口③②口 |----|
口②③口 |--②-|
①口口① |--③-|
21
口口口口 |----|
②口口① |----|
①口口② |①---|
口口口口 |②---|
22
口④④口 |①---|
口口③口 |②---|
口②口口 |③---|
口①①口 |--④-|
23
口口口口 |----|
①口口② |----|
②口口① |①---|
口口口口 |②---|
24
④口口④ |①---|
口③口口 |②---|
⑤口②⑤ |③-④-|
口①①口 |--⑤-|
25
口口口口 |----|
口口①口 |①---|
口口口口 |②---|
口②②口 |----|
26
②口口口 |①---|
口口口③ |②---|
④①①口 |③---|
口口口口 |④---|
27
口口口口 |①---|
口③口③ |②---|
口②口② |③---|
口①④① |④---|
28
①①口口 |①---|
②口②口 |②---|
③③口口 |③---|
口口口口 |----|
29
口口①① |①---|
口②口② |②---|
口口③③ |③---|
口口口口 |----|
30
口口口口 |①---|
③口③口 |②---|
②②口口 |③---|
①口①口 |----|
31
口口口① |①---|
口②口口 |②---|
口口口③ |③---|
口④口口 |④---|
32
①①口口 |①---|
②口②口 |②---|
③③口口 |③---|
口口口口 |----|
33
口口①① |①---|
口②口② |②---|
口口③③ |③---|
口口口口 |----|
34
口口口口 |①---|
③口③口 |②---|
②②口口 |③---|
①口①口 |----|
35
口口口④ |①---|
口口口① |②---|
口②口口 |③---|
④口口③ |④---|
36
①①口口 |①---|
②口②口 |②---|
③③口口 |③---|
口口④口 |④---|
37
口口①① |①---|
口②口② |②---|
口口③③ |③---|
口④口口 |④---|
38
口④口口 |①---|
③口③口 |②---|
②②口口 |③---|
①口①口 |④---|
39
口口口① |①---|
口②口口 |②---|
口口口③ |③---|
口④口口 |④---|
40
①①口口 |①---|
②口②口 |②---|
③③口口 |③---|
口口④口 |④---|
41
口口①① |①---|
口②口② |②---|
口口③③ |③---|
口④口口 |④---|
42
②口②口 |①---|
口②③口 |②---|
③①口③ |③---|
①④①口 |④---|
43
口①口口 |①---|
口口口② |②---|
口③口口 |③---|
口口口④ |④---|
44
①口口② |①---|
口①②口 |----|
口口口口 |②---|
口口口口 |----|
45
口口口口 |①---|
口口口口 |----|
口①②口 |②---|
①口口② |----|
46
口口②口 |①---|
③口口口 |②---|
口口口④ |③---|
口①口口 |④---|
47
口口口口 |----|
口口口口 |----|
口口②口 |①---|
口口①口 |②---|
48
口①口口 |①---|
①口口口 |----|
口③口口 |②---|
口②口口 |③---|
49
口口①口 |①---|
口口口① |----|
口口③口 |②---|
口口②口 |③---|
50
①口口② |①---|
③口口④ |②---|
口口口口 |③---|
口口口口 |④---|
51
口口口口 |①---|
口口口口 |②---|
①口口② |③---|
③口口④ |④---|
52
②口口② |①---|
口口口口 |----|
口①①口 |②---|
口口口口 |----|
53
口口口口 |①---|
口①①口 |----|
口口口口 |②---|
口②②口 |----|
54
口口口② |①---|
口③口口 |②---|
口口④口 |③---|
①口口口 |④---|
55
口口口口 |----|
口口口口 |----|
口②口口 |①---|
口①口口 |②---|
56
口①①口 |①---|
口口口① |----|
②口口口 |②---|
口②②口 |----|
57
②口口① |①---|
口②①口 |----|
②口口① |②---|
口口口口 |----|
58
口①①口 |①---|
口口口口 |----|
口①①口 |----|
口口口口 |----|
59
④口口口 |①---|
③口口口 |②---|
②口口口 |③---|
①口口口 |④---|
60
口②口口 |①---|
口口③口 |②---|
口④口口 |③---|
口口口① |④---|
61
④口口口 |①---|
口口口③ |②---|
口口口② |③---|
口口①口 |④---|
62
口②口口 |①---|
口口③口 |②---|
口④①口 |③---|
口口口口 |④---|
63
口口①口 |①---|
口口口② |②---|
口口口③ |③---|
口口口口 |----|
64
口口口口 |①---|
③③口口 |②---|
②②口口 |③---|
①①口口 |----|
65
口口口口 |①---|
口口③③ |②---|
口口②② |③---|
口口①① |----|
66
③③④④ |①---|
口口口口 |②---|
口口口口 |③---|
①①②② |④---|
67
④口口④ |①---|
口④④口 |②---|
口口口口 |③---|
①②③口 |④---|
68
口①③口 |①---|
①口口③ |②---|
口④②口 |③---|
口口口口 |④---|
69
①口口③ |①---|
口①③口 |②---|
口口口口 |③---|
口④②口 |④---|
70
口①口③ |①---|
口②④口 |②---|
①口③口 |③---|
口口口口 |④---|
71
口口口口 |①---|
口口口口 |②---|
①②③④ |③---|
①②③④ |④---|
72
②②②② |①---|
口口口口 |②---|
口③口口 |③---|
①口④口 |④---|
73
②②②② |①---|
口口口口 |②---|
口口③口 |③---|
①④口口 |④---|
74
④④口口 |①---|
口口③③ |②---|
②②口口 |③---|
口口①① |④---|
75
口口①① |①---|
②②口口 |②---|
口口③③ |③---|
④④口口 |④---|
76
②④口② |①---|
口②②口 |②---|
口口口③ |③---|
口口③① |④---|
77
口口口口 |①---|
①口口③ |②---|
口④②口 |③---|
①口口③ |④---|
78
口④②口 |①---|
口口口口 |②---|
①口口③ |③---|
口①③口 |④---|
79
①口口④ |①---|
①②③④ |②---|
口②③口 |③---|
口口口口 |④---|
80
口口口口 |①---|
口口口口 |②---|
③③④④ |③---|
①①②② |④---|
81
③③④④ |①---|
①①②② |②---|
口口口口 |③---|
口口口口 |④---|
82
⑦口口⑧ |①-②-|
⑤口口⑥ |③-④-|
③口口④ |⑤-⑥-|
①口口② |⑦-⑧-|
83
口⑦口口 |①-②-|
口⑤⑥口 |③-④-|
口③④口 |⑤-⑥-|
口①②口 |⑦---|
84
口口口口 |①---|
口③②口 |----|
口②③口 |--②-|
①口口① |--③-|
85
口口口口 |----|
②口口① |----|
①口口② |①---|
口口口口 |②---|
86
口④④口 |①---|
口口③口 |②---|
口②口口 |③---|
口①①口 |--④-|
87
口口口口 |----|
①口口② |----|
②口口① |①---|
口口口口 |②---|
88
④口口④ |①---|
口③口口 |②---|
⑤口②⑤ |③-④-|
口①①口 |--⑤-|
89
口口口口 |----|
口口①口 |①---|
口口口口 |②---|
口②②口 |----|
90
②口口口 |①---|
口口口③ |②---|
④①①口 |③---|
口口口口 |④---|
91
口口口口 |①---|
口③口③ |②---|
口②口② |③---|
口①④① |④---|
92
①①①① |①---|
口口口口 |----|
口口口口 |----|
口口口口 |----|

accuracy: 100%
最終更新:2023年07月22日 02:04