アットウィキロゴ
Slipstream
lapix

ADVANCED

Level: 9.6
BPM: 175
Notes: 746

1
口口口口 |----|
口口口口 |----|
口口口口 |----|
口口口口 |----|
2
②①①口 |----|
口④口口 |①---|
口口⑤口 |②-③-|
口口口③ |④-⑤-|
3
口口口④ |①-②-|
①口③口 |③-④-|
⑤②口⑧ |⑤-⑥-|
①⑥⑦口 |⑦-⑧-|
4
⑤②③口 |①-②-|
①⑥口④ |③-④-|
口口⑦口 |⑤-⑥-|
口口口⑧ |⑦-⑧-|
5
口口口口 |①-②-|
①口③口 |③-④-|
口②口④ |⑤-⑥-|
⑤⑥⑦⑧ |⑦-⑧-|
6
⑤⑥⑦⑧ |①-②-|
口②口④ |③-④-|
①口③口 |⑤-⑥-|
口口口口 |⑦-⑧-|
7
口口口口 |①-②-|
①⑥③⑧ |③-④-|
口口口口 |⑤-⑥-|
⑤②⑦④ |⑦-⑧-|
8
①⑥③⑧ |①-②-|
口口口口 |③-④-|
⑤②⑦④ |⑤-⑥-|
口口口口 |⑦-⑧-|
9
①口③口 |①-②-|
口②口④ |③-④-|
口⑥口⑧ |⑤-⑥-|
⑤口⑦口 |⑦-⑧-|
10
口②口④ |①-②-|
①口③口 |③-④-|
⑤⑥⑦口 |⑤-⑥-|
⑤⑥⑦口 |⑦---|
11
⑦③④⑦ |①-②-|
①口口② |③-④-|
口口⑥口 |⑤-⑥-|
口⑤口口 |⑦---|
12
口口口口 |①②③④|
①②③④ |----|
口口口口 |⑤⑥⑦⑧|
⑧⑦⑥⑤ |----|
13
①②③④ |①②③④|
口口口口 |----|
⑧⑦⑥⑤ |⑤⑥⑦⑧|
口口口⑨ |⑨---|
14
①②④③ |①②③④|
⑤⑥⑧⑦ |⑤⑥⑦⑧|
⑨⑩⑫⑪ |⑨⑩⑪⑫|
⑬⑭⑯⑮ |⑬⑭⑮⑯|
15
①②③④ |①②③④|
⑤⑥⑦⑧ |⑤⑥⑦⑧|
⑨⑩⑪⑫ |⑨⑩⑪⑫|
⑬口口口 |⑬---|
16
④③②① |①②③④|
⑩口口⑤ |⑤---|
⑥⑦⑧⑨ |⑥⑦⑧⑨|
口口口口 |⑩---|
17
⑥⑦⑧⑨ |①②③④|
⑩口口⑤ |⑤---|
口口口口 |⑥⑦⑧⑨|
④③②① |⑩---|
18
⑨⑩⑪⑫ |①②③④|
⑬⑭⑮⑯ |⑤⑥⑦⑧|
⑤⑥⑦⑧ |⑨⑩⑪⑫|
①②③④ |⑬⑭⑮⑯|
19
⑤⑤⑥⑥ |①-②-|
⑦⑦⑦⑦ |③-④-|
②②④④ |⑤-⑥-|
③①①③ |⑦---|
20
③口口口 |①---|
口⑥⑥口 |②-③-|
口⑤⑤④ |④-⑤-|
②①①口 |--⑥-|
21
口口口② |--①-|
口⑤⑤口 |②-③-|
③④④口 |④---|
口口口① |⑤---|
22
④⑤⑥口 |①---|
口口口口 |②-③-|
口⑦⑦③ |④-⑤-|
②①①口 |⑥-⑦-|
23
口口口口 |①-②-|
④③②① |③-④-|
口⑥⑥口 |⑤---|
口⑤⑤口 |⑥---|
24
口①①② |①---|
口⑥⑥③ |②-③-|
口⑤⑤④ |④-⑤-|
口口口口 |--⑥-|
25
①口口口 |--①-|
②口口口 |②-③-|
③口口口 |④---|
口④④口 |----|
26
⑦⑧⑨⑩ |①---|
口①①⑥ |②③④⑤|
⑤④③② |⑥---|
口口口口 |⑦⑧⑨⑩|
27
口口口口 |①---|
①③③口 |②---|
口⑤⑥口 |③-④-|
④②②口 |⑤-⑥-|
28
口③①口 |①---|
⑤④口② |②---|
①口④③ |③--④|
口②⑤口 |--⑤-|
29
口口口口 |①---|
口口①② |②---|
口①口口
口②口口

③口口口
④口口口
口⑤口口 |③--④|
⑤口④③ |--⑤-|
30
④③口口 |①---|
⑤①口② |②---|
口口①③ |③--④|
口②⑤④ |--⑤-|
31
口口①⑦ |①-②-|
口②口口 |③-④-|
①⑥③口 |--⑤-|
④口口⑤ |⑥-⑦-|
32
口③①口 |①---|
③口④① |②---|
②④口⑤ |③--④|
口②⑤口 |--⑤-|
33
②口③口 |①---|
口①口④ |②---|
③口①⑤ |③--④|
口④⑤② |--⑤-|
34
②口④口 |①---|
口①③口 |②---|
④③①⑤ |③--④|
口口⑤② |--⑤-|
35
口⑤口② |①-②-|
③①⑤口 |③-④-|
口⑤①口 |----|
口口⑤④ |⑤---|
36
①口①口 |①---|
②口口③ |②---|
③口②④ |③--④|
⑤口口⑥ |⑤-⑥-|
37
①口口② |①---|
②口口口 |②---|
口口口口
口口①口

口口口口
口口③口
③口④口 |③--④|
⑤口⑥口 |⑤-⑥-|
38
①口①口 |①---|
②口口口 |②---|
口口口②
口口口口

口口⑥口
口口④口
③口③口 |③--④|
⑤口口口 |⑤-⑥-|
39
①口⑧② |①-②-|
③口⑦③ |③-④-|
⑤口④口 |⑤-⑥-|
⑦口口⑥ |⑦-⑧-|
40
①口口① |①---|
②口⑥③ |②---|
③口②口 |③--④|
⑤口④口 |⑤-⑥-|
41
①口③① |①---|
②口口口 |②---|
③口④② |③--④|
⑤口口⑥ |⑤-⑥-|
42
①口口① |①---|
②⑤⑤② |②---|
口④④口 |③--④|
口③③口 |--⑤-|
43
④口口① |--①-|
口⑥⑥口 |②-③-|
②⑥⑥口 |④-⑤-|
口口③⑤ |⑥---|
44
③①③① |①---|
口口口④ |--②-|
②口口口 |③---|
口口口口 |--④-|
45
口③口③ |①---|
口口④口 |--②-|
口②口口 |③---|
口①口① |--④-|
46
口口口口 |①---|
口②口② |②---|
③口③口 |③---|
①④①④ |④---|
47
③③口口 |----|
口口②口 |--①-|
口①口口 |②---|
口口口口 |③---|
48
口口④④ |①---|
口③口口 |--②-|
口口②口 |③---|
口①口① |④---|
49
口口口口 |①---|
口⑤③口 |--②-|
口②④口 |③---|
①口①口 |④-⑤-|
50
口口③① |①---|
口口口口 |②-③-|
②④口口 |--④-|
口口⑤口 |--⑤-|
51
口口口口 |--①-|
③口口口 |--②-|
口口口② |--③-|
①口口口 |----|
52
口口①① |①---|
口口口口 |②-③-|
口口③口
口②口口

口口⑤口
口口口④
口口口口 |④---|
口口口口 |--⑤-|
53
口口口口 |①---|
口②④口 |--②-|
①口口口 |③---|
口口口③ |--④-|
54
口口口② |①---|
口③口口 |②---|
口口④口 |③---|
①口口口 |④---|
55
口口口口 |----|
口①口口 |--①-|
④口口⑤ |②-③-|
②口口③ |④-⑤-|
56
①口口口 |①---|
口④口② |--②-|
口口口口 |③---|
口③口口 |④---|
57
口口①口 |①---|
②口④口 |--②-|
口口口口 |③---|
口口③口 |④---|
58
口①口① |①---|
口口口口 |----|
口口口口 |----|
口口口口 |----|
59
①口口口 |①---|
口②口口 |②---|
口口③口 |③---|
口口口④ |④---|
60
口口口② |①---|
③口口口 |②---|
口口口④ |③---|
①口口口 |④---|
61
口①口口 |①-②-|
口⑥②口 |③-④-|
口③口口 |⑤---|
⑤口④口 |⑥---|
62
②口口口 |①---|
口口口③ |②---|
④口口口 |③---|
口口口① |④---|
63
口口①口 |①-②-|
口②口口 |③-④-|
口口③口 |⑤---|
口④口⑤ |----|
64
口⑥⑥口 |①-②-|
①②口口 |③-④-|
③④口口 |⑤---|
⑤口口口 |⑥---|
65
口⑦⑦口 |①-②-|
⑥口②① |③-④-|
口口④③ |⑤-⑥-|
口口口⑤ |⑦---|
66
口⑦⑧口 |①-②-|
口⑤⑥口 |③-④-|
口③④口 |⑤-⑥-|
口①②口 |⑦-⑧-|
67
①口口② |①---|
①④④② |②---|
①口④口 |③---|
口③④口 |④---|
68
①①⑤⑤ |①-②-|
⑥口口② |③-④-|
口③⑦口 |⑤-⑥-|
⑧口口④ |⑦-⑧-|
69
①口口⑤ |①-②-|
⑥①⑤② |③-④-|
③口口⑦ |⑤-⑥-|
口⑧④口 |⑦-⑧-|
70
⑤口口⑧ |①-②-|
口⑥⑦口 |③-④-|
口②③口 |⑤-⑥-|
①口口④ |⑦-⑧-|
71
口①②口 |①-②-|
①⑧口② |③-④-|
口口⑦口 |⑤-⑥-|
⑥③④⑤ |⑦-⑧-|
72
③①⑤③ |①-②-|
①口⑦⑤ |③-④-|
⑥口口② |⑤-⑥-|
口⑧④口 |⑦-⑧-|
73
③⑥⑦③ |①-②-|
⑥口口⑦ |③-④-|
口①⑤② |⑤--⑥|
①口④⑤ |--⑦-|
74
⑤口口④ |①-②-|
口⑥③口 |③-④-|
口②⑦口 |⑤-⑥-|
①口口⑧ |⑦-⑧-|
75
口⑦⑧口 |①-②-|
⑤口口⑥ |③-④-|
③口口④ |⑤-⑥-|
口①②口 |⑦-⑧-|
76
②⑥⑦② |①---|
口②②⑤ |②-③-|
④②②口 |④-⑤-|
①④口③ |⑥-⑦-|
77
⑤口⑦口 |①-②-|
口⑥口⑧ |③-④-|
口②口④ |⑤-⑥-|
①口③口 |⑦-⑧-|
78
⑤①⑦③ |①-②-|
口口口口 |③-④-|
口口口口 |⑤-⑥-|
⑧④②⑥ |⑦-⑧-|
79
口口口口 |①-②-|
⑤③⑦① |③-④-|
④⑥②⑧ |⑤-⑥-|
口口口口 |⑦-⑧-|
80
⑦口⑧口 |①-②-|
⑤口⑥口 |③-④-|
③口④口 |⑤-⑥-|
①口②口 |⑦-⑧-|
81
口⑦口⑧ |①-②-|
口⑤口⑥ |③-④-|
口③口④ |⑤-⑥-|
口①口② |⑦-⑧-|
82
口口口口 |①②③④|
⑨⑧⑦⑥ |⑤---|
⑤口口⑩ |⑥⑦⑧⑨|
①②③④ |⑩---|
83
口⑬④③ |①②③④|
⑨⑩⑧⑦ |⑤⑥⑦⑧|
⑤⑥⑫⑪ |⑨⑩⑪⑫|
①②口口 |⑬---|
84
③口口口 |①---|
口⑥⑥口 |②-③-|
口⑤⑤④ |④-⑤-|
②①①口 |--⑥-|
85
口口口② |--①-|
口⑤⑤口 |②-③-|
③④④口 |④---|
口口口① |⑤---|
86
④⑤⑥口 |①---|
口口口口 |②-③-|
口⑦⑦③ |④-⑤-|
②①①口 |⑥-⑦-|
87
口口口口 |①-②-|
④③②① |③-④-|
口⑥⑥口 |⑤---|
口⑤⑤口 |⑥---|
88
口①①② |①---|
口⑥⑥③ |②-③-|
口⑤⑤④ |④-⑤-|
口口口口 |--⑥-|
89
①口口口 |--①-|
②口口口 |②-③-|
③口口口 |④---|
口④④口 |----|
90
⑦⑧⑨⑩ |①---|
口①①⑥ |②③④⑤|
⑤④③② |⑥---|
口口口口 |⑦⑧⑨⑩|
91
口口口口 |①---|
①③③口 |②---|
口⑤⑥口 |③-④-|
④②②口 |⑤-⑥-|
92
口口①① |①---|
口口口口 |----|
口口口口 |----|
口口口口 |----|

accuracy: 100%
最終更新:2023年07月22日 02:18