アットウィキロゴ
Slipstream
lapix

EXTREME

Level: 10.3
BPM: 175
Notes: 981

1
口口口口 |----|
口口口口 |----|
口口口口 |----|
口口口口 |----|
2
口①①口 |----|
⑤口口③ |①---|
口口口口 |②-③-|
②口④口 |④-⑤-|
3
⑪⑧口① |①-②③|
⑫⑨④口 |④-⑤⑥|
③②⑦⑩ |⑦-⑧⑨|
⑥⑤口口 |⑩-⑪⑫|
4
口口①⑦ |①-②③|
口⑨⑧⑩ |④-⑤⑥|
③②口口 |⑦-⑧-|
⑥⑤④口 |⑨-⑩-|
5
①口⑧⑪ |①-②③|
口口⑨⑫ |④-⑤⑥|
④⑦②③ |⑦-⑧⑨|
⑩口⑤⑥ |⑩-⑪⑫|
6
口口口口 |①-②③|
④①口口 |④-⑤⑥|
口口②③
口口⑤⑥

⑦口口口
口⑩⑨口
口口口口 |⑦-⑧-|
⑧口口口 |⑨-⑩-|
7
⑪⑧①① |①-②③|
⑫⑨⑩口 |④-⑤⑥|
③②口⑦ |⑦-⑧⑨|
⑥⑤④口 |⑩-⑪⑫|
8
⑪⑧①① |①-②③|
⑫⑨⑩⑦ |④-⑤⑥|
③②④口 |⑦-⑧⑨|
⑥⑤口口 |⑩-⑪⑫|
9
口⑧①① |①-②-|
口口⑦口 |③-④-|
④⑥②口 |⑤-⑥-|
口③⑤⑤ |⑦-⑧-|
10
②口①① |①-②-|
口口口③ |③-④-|
口⑥⑤⑤ |⑤-⑥-|
⑦④口⑦ |⑦---|
11
⑦⑧⑨⑥ |①②③④|
①②③④ |⑤-⑥-|
⑦⑧⑨口 |⑦-⑧-|
口⑤口口 |⑨---|
12
口口⑦口 |①②③④|
口口③口 |----|
⑤⑥口⑧ |⑤⑥⑦⑧|
①②口④ |----|
13
口口口③ |①②③④|
①②口口 |----|
口口④口
口口口口

⑨⑩⑪⑫
口口口⑦
⑤⑥口口 |⑤⑥⑦⑧|
口口⑧口 |⑨⑩⑪⑫|
14
⑪⑮⑫⑯ |①②③④|
⑬③④⑩ |⑤⑥⑦⑧|
⑦⑨②⑥ |⑨⑩⑪⑫|
⑤①⑭⑧ |⑬⑭⑮⑯|
15
⑪⑬⑩口 |①②③④|
⑬③④⑧ |⑤⑥⑦⑧|
⑤⑨②⑫ |⑨⑩⑪⑫|
⑦①口⑥ |⑬---|
16
口⑦⑩⑧ |①②③④|
⑨⑤⑥口 |⑤---|
③口②⑩ |⑥⑦⑧⑨|
⑤①口④ |⑩---|
17
口⑦⑩⑧ |①②③④|
⑨⑤⑥口 |⑤---|
③口②⑩ |⑥⑦⑧⑨|
⑤①口④ |⑩---|
18
⑬⑭⑮⑯ |①②③④|
⑪⑨⑫② |⑤⑥⑦⑧|
⑦⑤⑧⑩ |⑨⑩⑪⑫|
③①④⑥ |⑬⑭⑮⑯|
19
口⑬⑬口 |①②③④|
⑨⑩⑪⑫ |⑤⑥⑦⑧|
⑤⑥⑦⑧ |⑨⑩⑪⑫|
①②③④ |⑬---|
20
⑨⑧⑧口 |①---|
⑤④⑥⑨ |②③④⑤|
⑨⑦③② |⑥⑦⑧-|
口①①⑨ |--⑨-|
21
⑧口口口 |--①②|
⑤⑥⑦口 |③④⑤⑥|
口⑧④③ |⑦---|
①②⑦口 |⑧---|
22
⑦①①⑧ |①---|
⑥⑨⑨口 |②③④⑤|
②口④口 |⑥-⑦-|
口③口⑤ |⑧-⑨-|
23
口①②口 |①②③④|
⑪⑬口⑫ |⑤⑥⑦⑧|
⑤③④⑥ |⑨⑩⑪⑫|
⑦⑨⑩⑧ |⑬---|
24
⑥⑤④③ |①-②-|
⑩口口⑨ |③④⑤⑥|
②①①⑧ |⑦-⑧-|
口⑩口⑦ |⑨-⑩-|
25
⑧口②① |--①②|
口⑦⑦口 |③④⑤⑥|
③④口⑧ |⑦---|
口口⑥⑤ |⑧---|
26
口口⑥⑥ |①---|
①⑤⑩口 |②③④⑤|
③⑨④⑧ |⑥---|
⑦①口② |⑦⑧⑨⑩|
27
①①口口 |①---|
口口口② |②---|
口口②口
口口口口

口⑥口口
⑤口口口
口口口口 |③-④-|
④③③口 |⑤-⑥-|
28
②口①③ |①---|
口③口④ |②---|
①④口⑤ |③--④|
口⑤口② |--⑤-|
29
口①②口 |①---|
口口口口 |②---|
口口口口
②口①口

③口口口
④口③口
⑤口④口 |③--④|
口口⑤口 |--⑤-|
30
口②口③ |①---|
口口③④ |②---|
口②④⑤ |③--④|
口①⑤① |--⑤-|
31
口口②口 |①-②-|
①③④⑧ |③-④-|
③⑦⑦口 |⑤-⑥-|
口⑤口⑥ |⑦-⑧-|
32
①口②口 |①---|
③④⑤口 |②---|
②口口① |③--④|
③④⑤口 |--⑤-|
33
口口口口 |①---|
口口口② |②---|
②①口口
口口口①

口⑤④③
口口口口
口⑤④③ |③--④|
口口口口 |--⑤-|
34
①口口口 |①---|
口口口口 |②---|
②口口口
口口①②

口口口口
口③④⑤
口口口口 |③--④|
③④⑤口 |--⑤-|
35
口④口① |--①-|
口口⑤口 |②-③-|
口②口口 |④-⑤-|
口⑥⑥③ |⑥---|
36
②口①③ |①---|
口③口④ |②---|
①④⑤⑥ |③--④|
口⑥口② |⑤-⑥-|
37
口①②口 |①---|
口口口口 |②---|
口口口口
②口①口

③口口口
④⑤③口
⑥口④口 |③--④|
口口⑥口 |⑤-⑥-|
38
口②口③ |①---|
口口③④ |②---|
口②④⑥ |③--④|
⑤①⑥① |⑤-⑥-|
39
口口②口 |①-②-|
①③④⑧ |③-④-|
③⑦⑦口 |⑤-⑥-|
口⑤口⑥ |⑦-⑧-|
40
①口②口 |①---|
③④⑥口 |②---|
②口⑤① |③--④|
③④⑥口 |⑤-⑥-|
41
口口口口 |①---|
口口口② |②---|
②①口口
口口口①

口⑥④③
⑤口口口
口⑥④③ |③--④|
口口口口 |⑤-⑥-|
42
①口口口 |①---|
口口口口 |②---|
②口口口
口口①②

口口口口
⑤③④⑤
口④③口 |③--④|
③④⑤口 |--⑤-|
43
口口口① |--①-|
口口口口 |②-③-|
②口③口
口口口口

④口口⑨
口口口⑧
口口口⑦ |④-⑤-|
⑤⑤口⑥ |⑥⑦⑧⑨|
44
④口①口 |①---|
③口⑤口 |--②③|
②口⑥口 |④---|
口口口口 |--⑤⑥|
45
口③口口 |①---|
口②口⑤ |--②③|
口口口⑥ |④---|
口④①口 |--⑤⑥|
46
②口口③ |①---|
口④口口 |②---|
口②③口 |③---|
④口口① |④---|
47
⑤口⑤④ |①---|
口口口口 |--②③|
口口口② |④---|
口①①③ |⑤---|
48
⑤口口⑤ |①---|
口④口口 |--②③|
①②①口 |④---|
口③口口 |⑤---|
49
口口④口 |①---|
口⑦口口 |--②③|
①⑥②① |④---|
⑤口③⑤ |⑤-⑥⑦|
50
口①口口 |①---|
④口②口 |②-③-|
口口口口 |--④-|
口⑤③口 |--⑤-|
51
口③③口 |--①-|
口②②口 |--②-|
口①①口 |--③-|
口口口口 |----|
52
①口⑥⑤ |①---|
⑦口口④ |②③④⑤|
⑧①口③ |⑥---|
口口口② |--⑦⑧|
53
口④⑥口 |①--②|
口③⑦口 |--③④|
口口②口 |⑤---|
①⑤①口 |--⑥⑦|
54
口口口② |①---|
口③口口 |②---|
口①①口 |③---|
③口口④ |④---|
55
口④④⑦ |①--②|
⑤口③口 |--③-|
口②⑥口 |④-⑤-|
口①①口 |⑥-⑦-|
56
①口口口 |①---|
口⑤⑤② |--②③|
口①口③ |④---|
口口④④ |⑤---|
57
①口②① |①--②|
③口口口 |--③④|
④⑥⑥口 |⑤---|
⑤⑤口口 |⑥---|
58
口③②① |①②③-|
口口口口 |----|
口口口口 |----|
口口口口 |----|
59
口口口口 |①---|
④⑤⑥⑦ |②---|
口口口口 |③---|
①②③口 |④⑤⑥⑦|
60
口口口② |①---|
口口口口 |②---|
③①①口 |③---|
口口④口 |④---|
61
⑤⑤②⑥ |①-②-|
①①口④ |③-④-|
口③口口 |⑤---|
口口口口 |⑥---|
62
口口口口 |①---|
口口②口 |②---|
口③④④ |③---|
①①口口 |④---|
63
⑤⑤②口 |①-②-|
①①口④ |③-④-|
口口口口 |⑤---|
口③口口 |----|
64
口⑩口⑩ |①②③④|
⑨口口口 |⑤⑥⑦⑧|
③⑦④⑧ |⑨---|
①⑤②⑥ |⑩---|
65
⑨⑩⑪⑫ |①②③④|
⑬口口⑬ |⑤⑥⑦⑧|
③⑦④⑧ |⑨⑩⑪⑫|
①⑤②⑥ |⑬---|
66
⑪口口⑫ |①-②-|
⑨①③⑩ |③-④-|
⑦口口⑧ |⑤⑥⑦⑧|
⑤②④⑥ |⑨⑩⑪⑫|
67
口④④口 |①---|
口①口口 |②---|
④①②④ |③---|
口①②③ |④---|
68
⑥⑦⑧② |①-②-|
①③②口 |③-④⑤|
⑨⑩⑪⑫ |-⑥⑦⑧|
①口④⑤ |⑨⑩⑪⑫|
69
⑧⑦⑥② |①-②-|
①③②⑤ |③④-⑤|
⑫⑪⑩⑨ |-⑥⑦⑧|
④①口口 |⑨⑩⑪⑫|
70
口⑪⑩⑨ |①②③④|
②⑧①⑦ |⑤⑥⑦⑧|
⑮⑭⑬⑫ |-⑨⑩⑪|
⑥④⑤③ |⑫⑬⑭⑮|
71
③⑧⑨⑩ |①②-③|
口⑦②④ |④⑤⑥⑦|
⑪⑫⑬⑭ |-⑧⑨⑩|
口⑤⑥① |⑪⑫⑬⑭|
72
⑦⑧⑨口 |①②③④|
①口⑥② |⑤⑥-⑦|
⑪⑫⑬⑭ |⑧⑨-⑩|
③⑤⑩④ |⑪⑫⑬⑭|
73
⑥⑦⑧口 |①②-③|
①⑤④③ |④⑤-⑥|
⑬⑫⑪⑩ |⑦⑧-⑨|
②⑨口口 |⑩⑪⑫⑬|
74
⑧⑭⑬⑦ |①②③④|
④⑥⑤③ |⑤⑥⑦⑧|
⑯⑫⑪⑮ |⑨⑩⑪⑫|
②⑩⑨① |⑬⑭⑮⑯|
75
⑫⑪⑩⑨ |①②③④|
④③②① |⑤⑥⑦⑧|
口⑬⑬口 |⑨⑩⑪⑫|
⑧⑦⑥⑤ |⑬---|
76
⑫口⑪⑨ |①---|
①④⑤① |②③④⑤|
⑧⑩⑬⑦ |⑥⑦⑧⑨|
②⑥③口 |⑩⑪⑫⑬|
77
口①口口 |①②③④|
③口⑥④ |⑤⑥⑦⑧|
口口口口
⑤⑦⑧②

⑮口口⑫
口⑨口口
⑪⑬⑭⑩ |⑨⑩⑪⑫|
口口口⑯ |⑬⑭⑮⑯|
78
⑮①②⑫ |①②③④|
③⑦⑧④ |⑤⑥⑦⑧|
⑪⑬⑭⑩ |⑨⑩⑪⑫|
⑨⑤⑥⑯ |⑬⑭⑮⑯|
79
⑮⑤②⑭ |①②③④|
①⑪⑧④ |⑤⑥⑦⑧|
⑨⑬⑫⑩ |⑨⑩⑪⑫|
⑦③⑥⑯ |⑬⑭⑮⑯|
80
⑬②③⑫ |①②③④|
①⑭⑪④ |⑤⑥⑦⑧|
⑨⑩⑮⑧ |⑨⑩⑪⑫|
⑤⑥⑦⑯ |⑬⑭⑮⑯|
81
⑬②③⑫ |①②③④|
①⑭⑪④ |⑤⑥⑦⑧|
⑨⑩⑮⑧ |⑨⑩⑪⑫|
⑤⑥⑦⑯ |⑬⑭⑮⑯|
82
⑨②③⑩ |①②③④|
①⑧⑦④ |⑤---|
口口口⑥ |⑥⑦⑧⑨|
口⑤⑤口 |⑩---|
83
口⑬⑬口 |①②③④|
⑨⑩⑪⑫ |⑤⑥⑦⑧|
⑤⑥⑦⑧ |⑨⑩⑪⑫|
①②③④ |⑬---|
84
⑨⑧⑧口 |①---|
⑤④⑥⑨ |②③④⑤|
⑨⑦③② |⑥⑦⑧-|
口①①⑨ |--⑨-|
85
⑧口口口 |--①②|
⑤⑥⑦口 |③④⑤⑥|
口⑧④③ |⑦---|
①②⑦口 |⑧---|
86
⑦①①⑧ |①---|
⑥⑨⑨口 |②③④⑤|
②口④口 |⑥-⑦-|
口③口⑤ |⑧-⑨-|
87
口①②口 |①②③④|
⑪⑬口⑫ |⑤⑥⑦⑧|
⑤③④⑥ |⑨⑩⑪⑫|
⑦⑨⑩⑧ |⑬---|
88
⑥⑤④③ |①-②-|
⑩口口⑨ |③④⑤⑥|
②①①⑧ |⑦-⑧-|
口⑩口⑦ |⑨-⑩-|
89
⑧口②① |--①②|
口⑦⑦口 |③④⑤⑥|
③④口⑧ |⑦---|
口口⑥⑤ |⑧---|
90
口口⑥⑥ |①---|
①⑤⑩口 |②③④⑤|
③⑨④⑧ |⑥---|
⑦①口② |⑦⑧⑨⑩|
91
①①口⑥ |①---|
口③口② |②---|
口⑤②口 |③-④-|
口③口④ |⑤-⑥-|
92
口①①口 |①---|
口口口口 |----|
①口口① |----|
口口口口 |----|

accuracy: 100%
最終更新:2023年07月22日 02:36