アットウィキロゴ
おにけもだんす
いろはにほへっと あやふぶみ(白上フブキ、百鬼あやめ、大神ミオ)

BASIC

Level: 3
BPM: 197
Notes: 204

1
口口口口 |(197)----|
口口口口 |----|
口口口口 |----|
口口口口 |----|
2
口口口口 |----|
口口口口 |----|
口口口口 |----|
口口口口 |----|
3
口口口口 |----|
口口口口 |----|
口口口口 |----|
口口口口 |----|
4
口口口口 |----|
口口口口 |----|
口口口口 |----|
口口口口 |----|
5
口①①口 |①---|
口②②口 |----|
口口口口 |②---|
口口口口 |----|
6
口口口口 |①---|
口口口口 |----|
口①①口 |②---|
口②②口 |----|
7
口口口口 |①---|
口①②口 |----|
口口口口 |②---|
口口口口 |----|
8
③口口口 |①---|
②口口口 |②---|
①口口口 |③---|
口口口口 |----|
9
口口口口 |----|
口口口口 |----|
口口口口 |----|
口口口口 |----|
10
口口口④ |①---|
口口口③ |②---|
口口口② |③---|
口口口① |④---|
11
口口口口 |----|
口口口口 |----|
口口口口 |----|
口口口口 |----|
12
④口口口 |①---|
③口口口 |②---|
②口口口 |③---|
①口口口 |④---|
13
口口口口 |----|
口口口口 |----|
口口口口 |----|
口口口口 |----|
14
口口口① |①---|
口口口② |②---|
口口口③ |③---|
口口口④ |④---|
15
口口口口 |①---|
口②②口 |----|
口口口口 |②---|
口①①口 |----|
16
①口口① |----|
口口口口 |----|
口口口口 |①---|
口口口口 |----|
17
口口口口 |①---|
②口口① |----|
口口口口 |②---|
口口口口 |----|
18
口口①口 |①---|
口口②口 |②---|
口口③口 |③---|
口口口口 |----|
19
口口口口 |①---|
口口口口 |----|
①口口② |②---|
口口口口 |----|
20
口口口口 |①---|
口②②口 |----|
口①①口 |②---|
口口口口 |----|
21
口口口口 |①---|
①口口② |----|
口口口口 |②---|
口口口口 |----|
22
口①口口 |①---|
口②口口 |②---|
口③口口 |③---|
口口口口 |----|
23
口口口口 |①---|
口口口口 |----|
②口口① |②---|
口口口口 |----|
24
口口口口 |①---|
口③③口 |②---|
口②②口 |③---|
口①①口 |----|
25
口口口口 |①---|
①口②口 |----|
口口口口 |②---|
口口口口 |----|
26
口口口口 |①---|
口③口口 |②---|
口②口口 |③---|
口①口口 |----|
27
口口口口 |①---|
口②①口 |----|
口口口口 |②---|
口口口口 |----|
28
口口口口 |①---|
口口口口 |----|
口②①口 |②---|
口口口口 |----|
29
口口口口 |①---|
口②口① |----|
口口口口 |②---|
口口口口 |----|
30
口口口口 |①---|
口口③口 |②---|
口口②口 |③---|
口口①口 |----|
31
口口口口 |①---|
口口口口 |----|
口①②口 |②---|
口口口口 |----|
32
口口口口 |①---|
口①①口 |----|
口口口口 |----|
口口口口 |----|
33
①口口口 |(98.5)①---|
口口口口 |----|
口口口口
口口口口
34
口①口口 |①---|
口口口口 |----|
口口口口
口口口口
35
口口口口 |①---|
口口①口 |----|
口口口口
口口口口
36
口口口口 |①---|
口口口① |----|
口口口口
口口口口
37
口口口口 |----|
口口口口 |①---|
口口口口
口①口口
38
口口口口 |①---|
口②口口 |②---|
口①口口
口口口口
39
口①口口 |①---|
口口口口 |----|
口口口口
口口口口
40
①口口① |①---|
口口口口 |----|
口口口口
口口口口
41
口口口口 |①---|
口口口口 |----|
口①①口
口口口口
42
口口口口 |①---|
口①口口 |----|
口口口口
口口口口
43
口口口口 |①---|
口口口口 |②---|
口口②①
口口口口
44
口口口口 |①---|
口口口口 |②---|
②①口口
口口口口
45
口口口口 |(197)①---|
口口口口 |----|
口口口口 |----|
口①①口 |----|
46
口口口口 |①---|
口口口口 |----|
口①①口 |----|
口口口口 |----|
47
口口口口 |①---|
①口口① |----|
口口口口 |----|
口口口口 |----|
48
口口口口 |----|
口口口口 |----|
口口口口 |----|
口口口口 |----|
49
口口口口 |----|
口①口口 |----|
口口口口 |①---|
口口口口 |----|
50
口口口口 |①---|
口口口口 |----|
口①口口 |②---|
口②口口 |----|
51
①口口① |----|
口口口口 |----|
口口口口 |①---|
口口口口 |----|
52
口口口口 |①---|
①口口① |----|
②口口② |②---|
口口口口 |----|
53
口口口口 |----|
口口口口 |----|
口口口口 |----|
口口口口 |----|
54
口口口口 |①---|
口②①口 |②---|
口④③口 |③---|
口口口口 |④---|
55
口口口口 |①---|
口口口① |②---|
口口口② |③---|
口口口③ |----|
56
口口口口 |①---|
口③④口 |②---|
口①②口 |③---|
口口口口 |④---|
57
③口口口 |①---|
②口口口 |②---|
①口口口 |③---|
口口口口 |----|
58
口①①口 |①---|
口口口口 |----|
口②②口 |②---|
口口口口 |----|
59
口口口口 |①---|
①口口① |②---|
②口口② |③---|
③口口③ |----|
60
口口④口 |①---|
口③口口 |②---|
口口②口 |③---|
口①口口 |④---|
61
①口口① |①---|
口口口口 |----|
口②②口 |②---|
口口口口 |----|
62
口口口口 |①---|
③口口④ |②---|
口口口口 |③---|
①口口② |④---|
63
口口口口 |①---|
口③口口 |②---|
口②口口 |③---|
口①口口 |----|
64
②口口① |①---|
口口口口 |②---|
④口口③ |③---|
口口口口 |④---|
65
口口①口 |①---|
口口②口 |②---|
口口③口 |③---|
口口口口 |----|
66
口口口口 |①---|
口②②口 |----|
口口口口 |②---|
口①①口 |----|
67
③口口③ |①---|
②口口② |②---|
①口口① |③---|
口口口口 |----|
68
口口口口 |①---|
口口口口 |②---|
口③④口 |③---|
口①②口 |④---|
69
口口口口 |①---|
①口口① |----|
口口口口 |----|
口口口口 |----|
70
口①①口 |①---|
口②②口 |----|
口口口口 |②---|
口口口口 |----|
71
口口口口 |①---|
口口口口 |----|
口①①口 |②---|
口②②口 |----|
72
口口口口 |①---|
口①②口 |----|
口口口口 |②---|
口口口口 |----|
73
③口口口 |①---|
②口口口 |②---|
①口口口 |③---|
口口口口 |----|
74
口口口口 |----|
口口口口 |----|
口口口口 |----|
口口口口 |----|
75
口口口④ |①---|
口口口③ |②---|
口口口② |③---|
口口口① |④---|
76
口口口口 |----|
口口口口 |----|
口口口口 |----|
口口口口 |----|
77
④口口口 |①---|
③口口口 |②---|
②口口口 |③---|
①口口口 |④---|
78
口口口口 |----|
口口口口 |----|
口口口口 |----|
口口口口 |----|
79
口口口① |①---|
口口口② |②---|
口口口③ |③---|
口口口④ |④---|
80
口口口口 |①---|
口②②口 |----|
口口口口 |②---|
口①①口 |----|
81
①口口① |----|
口口口口 |----|
口口口口 |①---|
口口口口 |----|
82
口口口口 |①---|
②口口② |----|
口①①口 |----|
口口口口 |--②-|
83
口口口口 |----|
口口口口 |----|
口口口口 |----|
口口口口 |----|
84
口口口口 |----|
口口口口 |----|
口口口口 |----|
口口口口 |----|
85
口①①口 |①---|
口口口口 |----|
口口口口 |----|
口口口口 |----|

accuracy: 100%
最終更新:2023年07月16日 02:19