アットウィキロゴ
おにけもだんす
いろはにほへっと あやふぶみ(白上フブキ、百鬼あやめ、大神ミオ)

ADVANCED

Level: 5
BPM: 197
Notes: 398

1
口口口口 |(197)----|
口口口口 |----|
口口口口 |----|
口口口口 |----|
2
口口口口 |----|
口口口口 |----|
口口口口 |----|
口口口口 |----|
3
口口口口 |----|
口口口口 |----|
口口口口 |----|
口口口口 |----|
4
口口口口 |----|
口口口口 |----|
口口口口 |----|
口口口口 |----|
5
④口口① |①---②-|
⑤口口② |--③---|
⑥口口③ |④---⑤-|
口口口口 |--⑥---|
6
口口口口 |①---②-|
口⑥③口 |--③---|
口⑤②口 |④---⑤-|
口④①口 |--⑥---|
7
③①口② |①---|
口口口口 |--②-|
口口口口 |③---|
口口口④ |--④-|
8
⑤口口⑤ |--①-|
口④③口 |②-③-|
口②①口 |④---|
口口口口 |⑤---|
9
口④口口 |①---|
口口③口 |②---|
口②口口 |③---|
口口①口 |④---|
10
口口④④ |①---|
口口③③ |②---|
口口②② |③---|
口口①① |④---|
11
口口④口 |①---|
口③口口 |②---|
口口②口 |③---|
口①口口 |④---|
12
口④④口 |①---|
口③③口 |②---|
口②②口 |③---|
口①①口 |④---|
13
口④口口 |①---|
口口③口 |②---|
口②口口 |③---|
口口①口 |④---|
14
④④口口 |①---|
③③口口 |②---|
②②口口 |③---|
①①口口 |④---|
15
口口口口 |①-②-|
口⑤⑥⑦ |③-④-|
口口口口 |⑤-⑥-|
④③②① |⑦---|
16
②口口② |----|
口口口口 |①---|
①口口① |②---|
口口口口 |----|
17
口口口口 |①---|
①②③④ |②---|
口口口口 |③---|
口口口口 |④---|
18
口口口口 |①-②-|
口⑤口口 |③-④-|
口③④口 |⑤---|
口①②口 |----|
19
口口口口 |--①-|
⑥口口⑤ |②-③-|
④口口③ |④-⑤-|
②口口① |⑥---|
20
①③①③ |①---|
口口口口 |②---|
④②④② |③---|
口口口口 |④---|
21
⑤口口口 |①---|
④③②① |②---|
口口口口 |③---|
口口口口 |④-⑤-|
22
口口口口 |--①-|
口④③口 |②-③-|
口②①口 |④---|
口口口口 |----|
23
口口口口 |--①-|
⑤口口⑥ |②-③-|
③口口④ |④-⑤-|
①口口② |⑥---|
24
③口口③ |①---|
口②②口 |②---|
口①①口 |③---|
口口口口 |----|
25
口①口口 |①---|
口口②口 |②---|
口③口口 |③---|
口口口口 |----|
26
口口口③ |①---|
口口③② |②---|
口口②① |③---|
口口①口 |----|
27
口口口口 |①-②-|
口口口口 |③---|
口⑥⑤④ |④-⑤-|
①②③口 |⑥---|
28
口②①口 |①-②-|
口④③口 |③-④-|
口口⑤口 |⑤---|
口口口口 |----|
29
口口①口 |①---|
口②口口 |②---|
口口③口 |③---|
口口口口 |----|
30
③口口口 |①---|
②③口口 |②---|
①②口口 |③---|
口①口口 |----|
31
口口⑦口 |--①-|
口⑥⑤口 |②-③-|
口④③口 |④-⑤-|
口②①口 |⑥-⑦-|
32
口口口口 |----|
口口口口 |----|
口口口口 |----|
口口口口 |----|
33
③口口口 |(98.5)①---|
口口口口 |②-③-|
②①①口
口口口口
34
口口口① |①--②|
口口②口 |--③-|
口③口口
口口口口
35
口口口② |----|
口口口口 |①-②-|
口口口①
口口口口
36
①口口口 |①--②|
口②口口 |--③-|
口口③口
口口口口
37
口口口口 |----|
口口口口 |①-②-③-|
①②③口
口口口口
38
④⑤⑥口 |①-②-③-|
口③②① |④-⑤-⑥-|
口口口口
口口口口
39
口口口① |①---|
口口口口 |②---|
口口口口
②口口口
40
②口口口 |①---|
口口①口 |②---|
口①口口
口口口②
41
③口口口 |①---|
口口口口 |②-③-|
②口口口
口①①口
42
口口口① |①--②|
口口②口 |--③-|
口③口口
口口口口
43
口口口口 |①---|
口口口口 |②---|
②口口②
口①①口
44
口②②口 |①---|
①口口① |②---|
口口口口
口口口口
45
口口口口 |(197)①---|
口口口口 |----|
口①①口 |----|
口口口② |②---|
46
口口口口 |①---|
口①①口 |----|
②口口② |②---|
口口口口 |----|
47
①口口① |①---|
口口口口 |----|
口②口口 |②---|
口口口口 |----|
48
口口口口 |①---|
④③②① |②---|
口口口口 |③---|
口口口口 |④---|
49
口②①口 |----|
口口③口 |①---|
口口口口 |②---|
口口口口 |③---|
50
口口口口 |①---|
口①口口 |②---|
口③②口 |③---|
口口④口 |④---|
51
口口口口 |----|
③口口口 |①---|
口口口② |②---|
①口口口 |③---|
52
口①①口 |①---|
口②②口 |②---|
口③③口 |③---|
口口口口 |----|
53
口口口口 |----|
①口口① |----|
口口口口 |----|
口口口口 |①---|
54
①口口③ |①---|
口①③口 |②---|
②口口④ |③---|
口②④口 |④---|
55
口⑤口口 |①-②-|
口③④口 |③-④-|
口①②口 |⑤---|
口口口口 |----|
56
口口①① |①---|
③③口口 |②---|
口口②② |③---|
④④口口 |④---|
57
口②①口 |①-②-|
口④③口 |③-④-|
口口⑤口 |⑤---|
口口口口 |----|
58
①口口① |①---|
口⑤③口 |--②-|
口口④口 |③---|
口②口口 |④-⑤-|
59
①口口① |①---|
②口口② |②---|
③口口③ |③---|
口口④口 |--④-|
60
口口口口 |①---|
③⑤口③ |②---|
口①④口 |③---|
②口口② |④-⑤-|
61
口①①口 |①---|
②口口② |----|
口口口口 |②---|
口口口口 |----|
62
口①②口 |①-②-|
⑤口口⑥ |③-④-|
口③④口 |⑤-⑥-|
⑦口口⑧ |⑦-⑧-|
63
口口口口 |①-②-|
口⑤口口 |③-④-|
口③④口 |⑤---|
口①②口 |----|
64
②口口① |①-②-|
口⑥⑤口 |③-④-|
④口口③ |⑤-⑥-|
口⑧⑦口 |⑦-⑧-|
65
口口口口 |①-②-|
口口口⑤ |③-④-|
④口口③ |⑤---|
②口口① |----|
66
口①①口 |①---|
口③口口 |--②-|
口口④口 |③---|
口⑤②口 |④-⑤-|
67
口口口口 |①---|
③口口③ |②---|
②口口② |③---|
①口口① |----|
68
②②①① |①---|
口口口口 |②---|
④④③③ |③---|
口口口口 |④---|
69
口口口口 |①---|
①口口① |----|
口口口口 |----|
口口口口 |----|
70
④口口① |①---②-|
⑤口口② |--③---|
⑥口口③ |④---⑤-|
口口口口 |--⑥---|
71
口口口口 |①---②-|
口⑥③口 |--③---|
口⑤②口 |④---⑤-|
口④①口 |--⑥---|
72
③①口② |①---|
口口口口 |--②-|
口口口口 |③---|
口口口④ |--④-|
73
⑤口口⑤ |--①-|
口④③口 |②-③-|
口②①口 |④---|
口口口口 |⑤---|
74
口④口口 |①---|
口口③口 |②---|
口②口口 |③---|
口口①口 |④---|
75
口口④④ |①---|
口口③③ |②---|
口口②② |③---|
口口①① |④---|
76
口口④口 |①---|
口③口口 |②---|
口口②口 |③---|
口①口口 |④---|
77
口④④口 |①---|
口③③口 |②---|
口②②口 |③---|
口①①口 |④---|
78
口④口口 |①---|
口口③口 |②---|
口②口口 |③---|
口口①口 |④---|
79
④④口口 |①---|
③③口口 |②---|
②②口口 |③---|
①①口口 |④---|
80
口口口口 |①-②-|
口⑤⑥⑦ |③-④-|
口口口口 |⑤-⑥-|
④③②① |⑦---|
81
②口口② |----|
口口口口 |①---|
①口口① |②---|
口口口口 |----|
82
口口口口 |①-②-|
⑤①②⑤ |----|
口④口口 |--③-|
口口③口 |④-⑤-|
83
口口口口 |----|
口口口口 |----|
口口口口 |----|
口口口口 |----|
84
口口口口 |----|
口口口口 |----|
口口口口 |----|
口口口口 |----|
85
口口口口 |①---|
口①①口 |----|
口口口口 |----|
口口口口 |----|

accuracy: 100%
最終更新:2023年07月16日 02:58