アットウィキロゴ
おにけもだんす
いろはにほへっと あやふぶみ(白上フブキ、百鬼あやめ、大神ミオ)

EXTREME

Level: 8
BPM: 197
Notes: 652

1
口口口口 |(197)----|
口口口口 |----|
口口口口 |----|
口口口口 |----|
2
口口口口 |----|
口口口口 |----|
口口口口 |----|
口口口口 |----|
3
口口口口 |----|
口口口口 |----|
口口口口 |----|
口口口口 |----|
4
口口口口 |----|
口口口口 |----|
口口口口 |----|
口口口口 |----|
5
①⑤口① |①---②-|
口口③口 |--③---|
④口口④ |④---⑤-|
口②口⑥ |--⑥---|
6
口⑥⑤④ |①---②-|
①②③口 |--③---|
口⑥⑤④ |④---⑤-|
①②③口 |--⑥---|
7
①口口口 |①---|
口口口口 |--②-|
①口口口
口②②口

④口④口
③④口③
口口口口 |③---|
口口口口 |--④-|
8
口②⑤④ |--①-|
⑤口④口 |②-③-|
②④口⑤ |④---|
④⑤③① |⑤---|
9
①口口口 |①---|
口③口口 |②--③|
口口口口
口口②①

⑥⑥口口
口口④口
口口口口 |④-⑤-|
⑤口口口 |--⑥-|
10
④口④口 |①---|
口③口③ |②---|
②口②口 |③---|
口①口① |④---|
11
口②口① |①---|
口口口口 |②--③|
口口③口
①口口口

口口口口
口口口口
口④口口 |④-⑤-|
⑥⑥口⑤ |--⑥-|
12
口③口① |①---|
④口②口 |②---|
口③口① |③---|
④口②口 |④---|
13
①口口② |①---|
口口口口 |②--③|
口③口口
口口口①

口⑤口口
口口口口
口口④口 |④-⑤-|
口口⑥⑥ |--⑥-|
14
①口①口 |①---|
口②口② |②---|
③口③口 |③---|
口④口④ |④---|
15
⑥②口② |①-②-|
口③①③ |③-④-|
口④⑦④ |⑤-⑥-|
口⑦⑤口 |⑦---|
16
②②②② |----|
①②②① |①---|
①口口① |②---|
①口口① |----|
17
口口口口 |①---|
③③③口 |②---|
口②②口 |③---|
④口①口 |④---|
18
口口①② |①-②-|
口口口③ |③-④-|
口口④口 |⑤---|
口口⑤口 |----|
19
口③口口 |--①-|
②口⑥口 |②-③-|
口①口⑤ |④-⑤-|
口口④口 |⑥---|
20
口③①口 |①---|
③①④① |②---|
②③②④ |③---|
口②④口 |④---|
21
⑤口口口 |①---|
口②口口 |②---|
④口③口 |③---|
①口口① |④-⑤-|
22
口③口② |--①-|
口口口口 |②-③-|
口④口① |④---|
口口口口 |----|
23
口口口③ |--①-|
⑥口②口 |②-③-|
口⑤口① |④-⑤-|
④口口口 |⑥---|
24
口③②③ |①---|
口②③② |②---|
①③②③ |③---|
口①口口 |----|
25
②口③口 |①---|
口②口③ |②---|
①口口口 |③---|
④①口口 |--④-|
26
③③口口 |①---|
③②②口 |②---|
口②①① |③---|
口口①口 |----|
27
口③⑥口 |--①-|
口⑤口口 |②-③-|
⑦口口② |④-⑤-|
①口④口 |⑥-⑦-|
28
②④口① |①-②-|
②口⑤① |③-④-|
口⑤口⑤ |⑤---|
口口⑤③ |----|
29
口③口口 |①---|
③口口② |②---|
①口②口 |③---|
口①口④ |--④-|
30
口口③③ |①---|
口②②③ |②---|
①①②口 |③---|
口①口口 |----|
31
口④口⑦ |--①-|
⑥③口口 |②-③-|
口②口口 |④-⑤-|
口①口⑤ |⑥-⑦-|
32
口③③口 |①---|
口③③口 |②---|
②口口② |③---|
口①①口 |----|
33
口口③口 |(98.5)①---|
口口口口 |②-③-|
口口口口
①①②口
34
③口口④ |①--②|
口口②口 |③-④-|
①①口①
口口口口
35
口口②口 |①---|
①①口口 |②-③-|
口口口口
口口③口
36
③口口① |①--②|
口口②口 |③-④-|
①①口④
口口口口
37
②③④口 |①---|
口口口口 |②-③-④-|
口口口口
①①口口
38
口口口口 |①-②-③-|
⑥口口① |④-⑤-⑥-|
⑤口口②
口④③口
39
口口口口 |①---|
口②②口 |②---|
口①①口
口口口口
40
口②②口 |①---|
②口口② |②---|
①口口①
口①①口
41
②口⑤口 |①-②-|
口④口口 |③④⑤-|
口口③口
①①①①
42
口②口⑤ |①-②③|
口口③口 |④-⑤-|
①④口①
口口口口
43
口口③口 |①-②-|
①④口① |③④⑤-|
⑤口口口
②口口口
44
①口口① |①-②-|
口口③口 |③④⑤-|
口④口口
②⑤⑤口
45
口①口口 |(197)①---|
口口④② |②---|
①④①口 |③---|
③口口④ |④---|
46
口口①口 |①---|
①口口③ |②---|
③口②口 |③---|
④①③口 |④---|
47
①⑤口⑧ |①-②-|
⑦口②口 |③-④-|
口③口⑥ |⑤-⑥-|
口口口④ |⑦-⑧-|
48
⑮⑦⑧⑯ |①②③④|
⑬⑤⑥⑭ |⑤⑥⑦⑧|
⑪③④⑫ |⑨⑩⑪⑫|
⑨①②⑩ |⑬⑭⑮⑯|
49
③口口口 |----|
口①口口 |①---|
②口口口 |②---|
口口口口 |③---|
50
口④①口 |①---|
④③④口 |②---|
口④②口 |③---|
口口口口 |④---|
51
口口口③ |----|
口口口口 |①---|
口口口② |②---|
口口①口 |③---|
52
口①①口 |①---|
口②②① |②---|
②③③口 |③---|
口口口③ |----|
53
①口口① |----|
口①①口 |----|
口口口口 |----|
口口口口 |①---|
54
口①⑧口 |①-②-|
⑤⑦口② |③-④-|
①③口口 |⑤-⑥-|
口⑤④⑥ |⑦-⑧-|
55
⑥①口⑦ |①-②-|
口口口③ |③-④-|
⑥④①⑦ |⑤-⑥-|
②口⑤口 |⑦---|
56
口②⑥口 |①-②-|
口口口③ |③-④-|
⑦④⑧口 |⑤-⑥-|
⑤①⑤① |⑦-⑧-|
57
⑥④口⑦ |①-②-|
①口口③ |③-④-|
⑥口口⑦ |⑤-⑥-|
口①⑤② |⑦---|
58
口口口⑤ |①---|
④④口口 |②-③-|
⑥①①口 |④---|
③口口② |⑤-⑥-|
59
口口口口 |①---|
④口①① |②---|
口②②口 |③---|
③③⑤⑤ |④-⑤-|
60
口口口口 |①---|
口口①① |②---|
②口口②
口口口口

③口口③
口口口⑤
口口口口 |③---|
口④口口 |④-⑤-|
61
口②②口 |①---|
③②②③ |----|
③①①③ |②---|
口口口口 |③---|
62
①⑤口⑧ |①-②-|
口口口口 |③-④-|
口⑦②口 |⑤-⑥-|
口③⑥④ |⑦-⑧-|
63
⑥④①⑦ |①-②-|
口①①口 |③-④-|
⑥口口⑦ |⑤-⑥-|
口②⑤③ |⑦---|
64
口③①⑥ |①-②-|
⑦①口④ |③-④-|
口⑤①口 |⑤-⑥-|
⑤⑤⑧② |⑦-⑧-|
65
⑥③口⑦ |①-②-|
口①①④ |③-④-|
⑥口口⑦ |⑤-⑥-|
口⑤口② |⑦---|
66
口②口口 |①---|
口口③⑥ |②-③-|
口①①口 |④---|
⑤口④④ |⑤-⑥-|
67
口口③③ |①---|
口②②④ |②---|
①①口口 |③---|
口口口口 |④---|
68
③③④④ |①---|
③③④④ |②---|
①①②② |③---|
①①②② |④---|
69
口⑦⑦口 |①-②-|
口⑤口口 |③-④-|
①口⑥④ |⑤-⑥-|
口②③口 |⑦---|
70
①⑤口① |①---②-|
口口③口 |--③---|
④口口④ |④---⑤-|
口②口⑥ |--⑥---|
71
口⑥⑤④ |①---②-|
①②③口 |--③---|
口⑥⑤④ |④---⑤-|
①②③口 |--⑥---|
72
①口口口 |①---|
口口口口 |--②-|
①口口口
口②②口

④口④口
③④口③
口口口口 |③---|
口口口口 |--④-|
73
口②⑤④ |--①-|
⑤口④口 |②-③-|
②④口⑤ |④---|
④⑤③① |⑤---|
74
①口口口 |①---|
口③口口 |②--③|
口口口口
口口②①

⑥⑥口口
口口④口
口口口口 |④-⑤-|
⑤口口口 |--⑥-|
75
④口④口 |①---|
口③口③ |②---|
②口②口 |③---|
口①口① |④---|
76
口②口① |①---|
口口口口 |②--③|
口口③口
①口口口

口口口口
口口口口
口④口口 |④-⑤-|
⑥⑥口⑤ |--⑥-|
77
口③口① |①---|
④口②口 |②---|
口③口① |③---|
④口②口 |④---|
78
①口口② |①---|
口口口口 |②--③|
口③口口
口口口①

口⑤口口
口口口口
口口④口 |④-⑤-|
口口⑥⑥ |--⑥-|
79
①口①口 |①---|
口②口② |②---|
③口③口 |③---|
口④口④ |④---|
80
⑥②口② |①-②-|
口③①③ |③-④-|
口④⑦④ |⑤-⑥-|
口⑦⑤口 |⑦---|
81
②②②② |----|
①②②① |①---|
①口口① |②---|
①口口① |----|
82
⑤⑤⑤⑤ |①-②-|
②④口② |----|
口①①口 |--③-|
②口③② |④-⑤-|
83
口口口口 |----|
口口口口 |----|
口口口口 |----|
口口口口 |----|
84
口口口口 |----|
口口口口 |----|
口口口口 |----|
口口口口 |----|
85
口①①口 |①---|
口口口口 |----|
①口口① |----|
口口口口 |----|

accuracy: 100%
最終更新:2023年07月16日 03:34