アットウィキロゴ
KINGWORLD
白上フブキ

BASIC

Level: 6
BPM: 240
Notes: 449

1
口口口口 |(240)----|
口口口口 |----|
口口口口 |----|
口口口口 |----|
2
口①①口 |(480)①---|
口口口口 |----|
口口口口 |----|
口口口口
3
口口口口 |①---|
口①①口 |----|
口口口口 |----|
口口口口
4
口口口口 |①---|
口口口口 |----|
口①①口 |----|
口口口口
5
口口口口 |①---|
口口口口 |----|
口口口口 |----|
口①①口
6
①口口① |①---|
口口口口 |----|
口口口口 |----|
口口口口
7
口口口口 |①---|
①口口① |----|
口口口口 |----|
口口口口
8
口口口口 |①---|
口口口口 |----|
①口口① |----|
口口口口
9
口口口口 |(240)①---|
口口口口 |----|
口口口口 |----|
①口口①
10
口口口口 |----|
口口口口 |----|
口口口口 |----|
口口口口
11
口口口口 |①---|
口③口口 |②---|
④②口④ |③---|
口①口口 |--④-|
12
口②①口 |--①-|
③口口口 |②---|
口口口口 |----|
口口口口 |③---|
13
口口口口 |①---|
口口③口 |②---|
④口②④ |③---|
口口①口 |--④-|
14
③②①口 |--①-|
口口口口 |②-③-|
口口口口 |----|
口口口口 |----|
15
口口口口 |①---|
口③口口 |②---|
口②口口 |③---|
口①口口 |----|
16
口口口口 |①---|
口口③口 |②---|
口口②口 |③---|
口口①口 |----|
17
④③②① |①---|
口口口口 |②---|
口口口口 |③---|
口口口口 |④---|
18
口口口口 |①---|
口口口口 |----|
口①①口 |----|
口口口口 |----|
19
口口口口 |①---|
口口口口 |----|
口口口② |②---|
口口口① |----|

口口③③
口口口口 |③---|
口口口口 |----|
口口口口 |----|
20
口口口口 |①---|
口口口口 |----|
②口口口 |②---|
①口口口 |----|

③③口口
口口口口 |③---|
口口口口 |----|
口口口口 |----|
21
口口口口 |①---|
口口②① |----|
口口口口 |②---|
口口口口 |----|

口口口口
④③口口 |③---|
口口口口 |----|
口口口口 |④---|
22
口口口口 |①---|
③口口③ |--②-|
口②②口 |----|
口①①口 |--③-|
23
①口口① |----|
口口口口 |--①-|
口口口口 |----|
口口口口 |----|
24
口口口口 |①---|
口口口口 |②---|
④③②① |③---|
口口口口 |④---|

口口口口
口口口⑤ |⑤---|
口口口口 |----|
口口口口 |----|
25
①②③④ |①---|
口口口口 |②---|
口口口口 |③---|
口口口口 |④---|

口口口口
⑤口口口 |⑤---|
口口口口 |----|
口口口口 |----|
26
口口口口 |①---|
口口口口 |②---|
口④③口 |③---|
口②①口 |④---|

口口⑦口
口⑥⑤口 |⑤---|
口口口口 |⑥---|
口口口口 |⑦---|
27
①①口口 |①---|
口口③③ |--②-|
②②口口 |----|
口口口口 |--③-|
28
口口口口 |----|
口口口口 |----|
口口口口 |----|
口口口口 |----|
29
口口口口 |①---|
口口口口 |②---|
口③②① |③---|
口口口口 |----|
30
口口口口 |①---|
①②③口 |②---|
口口口口 |③---|
口口口口 |----|
31
口口口口 |①---|
口口口口 |②---|
口④③口 |③---|
口②①口 |④---|
32
②口口② |①---|
口口①口 |----|
口口口口 |②---|
口口口口 |----|
33
口口口口 |①---|
③口口口 |②---|
②口口口 |③---|
①口口口 |----|
34
口口口口 |①---|
口口口③ |②---|
口口口② |③---|
口口口① |----|
35
②口口② |①---|
口口口口 |----|
口①①口 |②---|
口口口口 |----|
36
口口口口 |----|
口口口口 |----|
口口口口 |①---|
口②①口 |②---|
37
④口口④ |①---|
口口③口 |②---|
口②①口 |③---|
口口口口 |--④-|
38
口口口口 |----|
①口口① |--①-|
口口口口 |----|
口②口口 |--②-|
39
口口④口 |①---|
口口③口 |②---|
口口②口 |③---|
口口①口 |④---|
40
②②口口 |①---|
口口口口 |----|
①①口口 |②---|
口口口口 |----|
41
口口口口 |①---|
②口口② |--②-|
口口口口 |----|
①口口① |----|
42
口口④口 |①---|
口③口口 |②---|
口口②口 |③---|
口①口口 |④---|
43
口口口口 |----|
口口口口 |----|
口口口口 |----|
口口口口 |----|
44
口口口口 |----|
口口口口 |①---|
口③②① |②---|
口口口口 |③---|
45
口口口口 |①---|
①②③口 |②---|
④口口④ |③---|
口口口口 |--④-|
46
口②①口 |--①-|
③口口口 |②---|
口口口口 |----|
口口口口 |③---|
47
口口口口 |①---|
口①②③ |②---|
④口口④ |③---|
口口口口 |--④-|
48
③②①口 |--①-|
口口口口 |②-③-|
口口口口 |----|
口口④口 |④---|
49
口⑤口③ |①-②-|
口②①口 |--③-|
口口口④ |--④-|
口口口口 |--⑤-|
50
口口②口 |--①-|
口口口口 |--②-|
口①③口 |--③-|
口口口口 |----|
51
④口口④ |①---|
③口口③ |②---|
②口口② |③---|
①口口① |④---|
52
口口口口 |----|
口口口口 |①---|
口口口口 |②---|
①②③口 |③---|
53
口口口口 |①---|
口口口口 |②---|
口③②① |③---|
④口口④ |--④-|
54
口②①口 |--①-|
③口口口 |②---|
口口口口 |----|
口口口口 |③---|
55
口口口口 |①---|
口①②③ |②---|
④口口④ |③---|
口口口口 |--④-|
56
口②①口 |--①-|
口口口口 |②---|
口口口口 |----|
口口③口 |③---|
57
口③口口 |①---|
口口②口 |②---|
④①口④ |③---|
口口口口 |--④-|
58
②口③② |--①-|
①口口① |--②-|
口口口口 |----|
口口口口 |③---|
59
口口口口 |①---|
口①口口 |②---|
口口②口 |③---|
口③口口 |----|
60
口③③口 |①---|
口口口口 |--②-|
②口口② |----|
①口口① |③---|
61
口口口口 |①---|
口口③口 |②---|
口口②口 |③---|
口口①口 |----|
62
口口口口 |①---|
口③口口 |②---|
口②口口 |③---|
口①口口 |----|
63
②口口① |①---|
④口口③ |②---|
口口口口 |③---|
口口口口 |④---|
64
口口口口 |①---|
口口口口 |②---|
②口口① |③---|
口口口③ |----|
65
口口口口 |①---|
口③口口 |②---|
口②口口 |③---|
口①口口 |----|
66
口口口口 |①---|
口口③口 |②---|
口口②口 |③---|
口口①口 |----|
67
④③②① |①---|
口口口口 |②---|
口口口口 |③---|
口口口口 |④---|
68
口口口口 |①---|
口口口口 |----|
口①①口 |----|
口口口口 |----|
69
口口③口 |①---|
口口口② |②---|
④口口① |③---|
口口口口 |④---|
70
口②口口 |①---|
①口口口 |②---|
口口口口 |----|
口口口口 |----|
71
口口口口 |①---|
口口口③ |②---|
口口②口 |③---|
口④①口 |④---|
72
口口口口 |①---|
②口口口 |②---|
口①口口 |----|
口口口口 |----|
73
口口口③ |①---|
口口②口 |②---|
④口口① |③---|
口口口口 |④---|
74
②口口口 |①---|
口①口口 |②---|
口口口口 |----|
口口口口 |----|
75
口口口口 |①---|
③口口③ |--②-|
口②②口 |----|
口①①口 |--③-|
76
①口口① |----|
口口口口 |--①-|
口口口口 |----|
口口口口 |----|
77
口口口口 |①---|
口口口口 |②---|
口口口③ |③---|
口①②口 |----|

口④⑤口
口口口⑥ |④---|
口口口口 |⑤---|
口口口口 |⑥---|
78
口口口口 |①---|
口口口口 |②---|
①②口口 |③---|
口口③口 |----|

口口⑥口
④⑤口口 |④---|
口口口口 |⑤---|
口口口口 |⑥---|
79
口口口口 |①---|
口口口口 |②---|
口口②口 |③---|
口①口③ |----|

口④口⑥
口口⑤口 |④---|
口口口口 |⑤---|
口口口口 |⑥---|
80
口③③口 |①---|
①①口口 |--②-|
口口口口 |----|
口口②② |--③-|
81
口口口口 |----|
口口口口 |----|
口口口口 |----|
口口口口 |----|
82
口口口口 |①---|
口口口口 |----|
口口口口 |②---|
①②口口

口口口口
口口口口 |----|
口③口口 |③---|
口口口口 |----|
83
口口口口 |①---|
口口②① |----|
口口口口 |②---|
口口口口

口口口口
口口口口 |----|
口口③口 |③---|
口口口口 |----|
84
口口口口 |①---|
②口口口 |----|
①口口口 |②---|
口口口口

口③口口
口口口口 |----|
口口口口 |③---|
口口口口 |----|
85
口口①口 |①---|
口口口② |----|
口口口口 |②---|
口口口口

口口口口
口口口口 |----|
口口口③ |③---|
口口口口 |----|
86
口口口口 |①---|
口口口口 |----|
口口口口 |②---|
口口②①

口口口口
口口口口 |----|
口口③口 |③---|
口口口口 |----|
87
口口口口 |①---|
口口口口 |----|
口口口口 |②---|
①②口口

口口口口
口口口口 |----|
口③口口 |③---|
口口口口 |----|
88
口口口口 |①---|
口口口② |----|
口口①口 |②---|
口口口口

口口③口
口口口口 |----|
口口口口 |③---|
口口口口 |----|
89
口①口口 |①---|
②口口口 |----|
口口口口 |②---|
口口口口

口口口口
口口口口 |----|
口③口口 |③---|
口口口口 |----|
90
口口口口 |①---|
口口口口 |--②-|
口口口② |----|
口口口①

口口口④
口口口③ |③---|
口口口口 |--④-|
口口口口 |----|
91
口口①口 |①---|
口口②口 |--②-|
口口口口 |----|
口口口口

口④口口
口③口口 |③---|
口口口口 |--④-|
口口口口 |----|
92
①口口口 |①---|
②口口口 |--②-|
口口口口 |----|
口口口口

口口口口
口口口口 |③---|
③④口口 |--④-|
口口口口 |----|
93
口口口口 |①---|
口口口口 |--②-|
口口①口 |----|
口口②口

口口口口
口口口口 |③---|
口口口口 |--④-|
④③口口 |----|
94
口口口口 |①---|
②口口口 |--②-|
①口口口 |----|
口口口口

③④口口
口口口口 |③---|
口口口口 |--④-|
口口口口 |----|
95
口口①② |①---|
口口口口 |--②-|
口口口口 |----|
口口口口

口口口口
口口④③ |③---|
口口口口 |--④-|
口口口口 |----|
96
口口口口 |①---|
口口口口 |--②-|
口口①② |----|
口口口口

口口口口
口口口口 |③---|
口口口口 |--④-|
口口④③ |----|
97
口口口口 |①---|
口③口口 |--②-|
口②口口 |----|
口①口口 |③---|
98
口口口口 |----|
口口口口 |①---|
口③②① |②---|
口口口口 |③---|
99
口口口口 |①---|
①②③口 |②---|
④口口④ |③---|
口口口口 |--④-|
100
口②①口 |--①-|
③口口口 |②---|
口口口口 |----|
口口口口 |③---|
101
口口口口 |①---|
口①②③ |②---|
④口口④ |③---|
口口口口 |--④-|
102
③②①口 |--①-|
口口口口 |②-③-|
口④口口 |----|
口口口口 |④---|
103
口④③口 |①---|
口口口② |②---|
口口①口 |③---|
口口口口 |④---|
104
口口口口 |①---|
口①③口 |②-③-|
口口口口 |--④-|
口④②口 |----|
105
④口口④ |①---|
③口口③ |②---|
②口口② |③---|
①口口① |④---|
106
口口口口 |----|
口口口口 |①---|
口口口口 |②---|
①②③口 |③---|
107
口口口口 |①---|
口口口口 |②---|
口③②① |③---|
④口口④ |--④-|
108
口②②口 |--①-|
口①①口 |--②-|
③口口口 |----|
口口口口 |③---|
109
口口口口 |①---|
口口口口 |②---|
口①②③ |③---|
④口口④ |--④-|
110
口②②口 |--①-|
口①①口 |--②-|
口口口口 |----|
口口③口 |③---|
111
口③口口 |①---|
口口②口 |②---|
口①口④ |③---|
口口口口 |④---|
112
口③口② |①---|
口口口① |②---|
口口口口 |----|
口口口口 |③---|
113
口口口口 |①---|
口口①口 |②---|
口②口口 |③---|
口口③口 |----|
114
口③③口 |①---|
口口口口 |--②-|
②口口② |----|
①口口① |③---|
115
口口口口 |①---|
口口③口 |②---|
口口②口 |③---|
口④①口 |④---|
116
口口口口 |①---|
口②口口 |②---|
③①口③ |③---|
口口口口 |----|
117
口④①口 |①---|
口口②口 |②---|
口口③口 |③---|
口口口口 |④---|
118
口口口口 |①---|
③①口③ |②---|
口②口口 |③---|
口口口口 |----|
119
口口口口 |①---|
口口口口 |②---|
口口口③ |③---|
口④①② |④---|
120
口口口口 |①---|
口④③口 |②---|
②口口口 |③---|
①口口口 |④---|
121
④口口① |①---|
口口口② |②---|
口口③口 |③---|
口口口口 |④---|
122
口⑥⑤口 |①---|
①④③口 |②---|
口②口口 |③-④-|
口口口口 |⑤-⑥-|

accuracy: 100%
最終更新:2023年07月19日 04:23