アットウィキロゴ
KINGWORLD
白上フブキ

ADVANCED

Level: 8
BPM: 240
Notes: 776

1
口口口口 |(240)----|
口口口口 |----|
口口口口 |----|
口口口口 |----|
2
口口①口 |(480)①---|
口口口口 |----|
①口口口 |----|
口口口口
3
口①口口 |①---|
口口口口 |----|
口口口① |----|
口口口口
4
口口口口 |①---|
口口口① |----|
口口口口 |----|
口①口口
5
口口口口 |①---|
①口口口 |----|
口口口口 |----|
口口①口
6
口口口① |①---|
口口口口 |----|
口①口口 |----|
口口口口
7
口口口口 |①---|
口①口口 |----|
口口口口 |----|
口口口①
8
口口口口 |①---|
口口①口 |----|
口口口口 |----|
①口口口
9
③口口③ |(240)①---②-|
②口口② |--③---|
①口口① |----|
口口口口
10
口口口口 |----|
口口口口 |----|
口口口口 |----|
口口口口
11
①⑥⑥① |①---|
口③②口 |②-③-|
口⑤④口 |④-⑤-|
口口口口 |--⑥-|
12
③口口③ |--①-|
②口口口 |②---|
①口口口 |----|
口口口口 |③---|
13
口⑥⑥口 |①---|
口口口口 |②-③-|
③①①② |④-⑤-|
⑤口口④ |--⑥-|
14
④口口口 |--①-|
口口③口 |②-③-|
口②口口 |----|
口口①口 |④---|
15
口口⑤口 |①-②-|
口④口⑦ |③-④-|
⑧⑥③口 |⑤-⑥-|
②口口① |⑦-⑧-|
16
②⑥口口 |--①-|
①口⑤口 |--②-|
口口口③ |③-④-|
口④口口 |⑤-⑥-|
17
口口⑤① |①-②-|
⑥②口口 |③-④-|
口口③⑦ |⑤-⑥-|
④⑧口口 |⑦-⑧-|
18
⑦④口口 |①-②-|
⑥口③口 |③-④-|
⑤②口口 |--⑤-|
口口①口 |⑥-⑦-|
19
口口口① |----|
口口④口 |①---|
口口③口 |②---|
口②口口 |③-④-|

口口口口
⑥口口口 |--⑤-|
⑤口口口 |⑥---|
口口口口 |----|
20
①口口口 |----|
口④口口 |①---|
口③口口 |②---|
口口②口 |③-④-|

口口口口
口口口⑥ |--⑤-|
口口口⑤ |⑥---|
口口口口 |----|
21
⑤口口口 |--①-|
⑥③④口 |②-③-|
口①②口 |④---|
口口口口 |⑤-⑥-|

口口口⑧
口口口⑨ |--⑦-|
口口口口 |----|
⑦口口⑦ |⑧-⑨-|
22
口⑤⑥口 |①-②-|
口③④口 |--③-|
口①②口 |④---|
口口口口 |⑤-⑥-|
23
②口口② |--①-|
口口口口 |--②-|
①口口① |----|
口口口口 |----|
24
口口口口 |----|
①口口① |①---|
⑤口③口 |②-③-|
口④口② |④-⑤-|

口口⑦口
口口⑥口 |--⑥-|
口口口口 |⑦---|
口口口口 |----|
25
口口口口 |----|
①口口① |①---|
口③口⑤ |②-③-|
②口④口 |④-⑤-|

口⑦口口
口⑥口口 |--⑥-|
口口口口 |⑦---|
口口口口 |----|
26
⑦⑥⑤口 |--①-|
口口口口 |②-③-|
①②③④ |④-⑤-|
口口口口 |⑥-⑦-|

口口口口
口口口⑧ |--⑧-|
口口口口 |----|
⑨⑩口口 |⑨-⑩-|
27
⑤口口⑤ |①---|
口口口口 |②-③-|
口④③② |④---|
口口①口 |--⑤-|
28
口口口口 |--①-|
口①①口 |----|
②③④⑤ |②-③-|
口口口口 |④-⑤-|
29
⑤①②⑤ |①-②-|
③口口③ |--③-|
口口口口 |--④-|
口④④口 |--⑤-|
30
口口⑤口 |--①-|
④口①口 |②-③-|
口口口③ |④-⑤-|
②⑥口口 |--⑥-|
31
⑦⑥口⑦ |①-②-|
口④⑤口 |③-④-|
口②③口 |⑤-⑥-|
口口①口 |--⑦-|
32
口口①口 |----|
口②口口 |--①-|
口口③口 |②-③-|
口④口口 |④---|
33
⑤②口⑤ |①---|
①口口① |②-③-|
④口口④ |--④-|
口口③口 |--⑤-|
34
口口口口 |----|
口口口口 |①---|
口口③口 |②---|
口②口① |③---|
35
口③③口 |①---|
口①①口 |--②-|
②口口② |③---|
口口口口 |----|
36
口口口口 |----|
①②③④ |----|
口口口口 |①-②-|
口口口口 |③-④-|
37
口⑥⑥口 |①-②-|
口口口口 |③-④-|
口③④口 |--⑤-|
⑤①②⑤ |--⑥-|
38
口口口口 |--①-|
③口口③ |--②-|
①④口① |--③-|
口②②口 |--④-|
39
口口口口 |①---|
④口①④ |②---|
③口口③ |③---|
②口口② |④---|
40
口①①口 |①---|
口②口口 |--②-|
口口③口 |③---|
口④口口 |--④-|
41
口⑤⑥口 |①---|
④口口口 |②-③-|
①口口③ |--④-|
口口②口 |⑤-⑥-|
42
④口口④ |①---|
口②②① |②---|
③口口③ |③---|
口口口口 |④---|
43
口口口口 |----|
口口口口 |----|
口口口口 |----|
口口口口 |----|
44
③口口③ |----|
口口口口 |①---|
口②②口 |②---|
①口口① |③---|
45
口⑤④口 |①---|
⑥③②⑥ |②-③-|
①口口① |④-⑤-|
口口口口 |--⑥-|
46
②口口② |--①-|
口③③口 |②---|
口①①口 |----|
口口口口 |③---|
47
口⑥⑥口 |①---|
⑤口口④ |②-③-|
③口口② |④-⑤-|
口①①口 |--⑥-|
48
口口口③ |--①-|
口②口口 |②-③-|
④④①口 |----|
口口口口 |④---|
49
⑥③⑥口 |①-②-|
口口口① |--③-|
口口④口 |④-⑤-|
口⑤②口 |--⑥-|
50
口口口口 |--①-|
口②口② |--②-|
④①口① |--③-|
③口③口 |--④-|
51
口④①④ |①---|
③口③口 |②---|
口②口② |③---|
口口口口 |④---|
52
口口口口 |----|
③口口③ |①---|
口②②口 |②---|
①口口① |③---|
53
口③②口 |①---|
口⑤④口 |②-③-|
口⑦⑥口 |④-⑤-|
口①①口 |⑥-⑦-|
54
②口口② |--①-|
①③③① |②---|
口口口口 |----|
口口口口 |③---|
55
口口口口 |①---|
⑥口口⑦ |②-③-|
④口口⑤ |④-⑤-|
②①①③ |⑥-⑦-|
56
②口口② |--①-|
口①①口 |②---|
口③③口 |----|
口口口口 |③---|
57
口口口口 |①-②-|
口⑦⑥口 |③-④-|
口口口⑤ |⑤---|
④③②① |⑥-⑦-|
58
②③口② |--①-|
③口口口 |--②-|
口①①口 |----|
口口口口 |③---|
59
口口①口 |①---|
口口口① |②---|
②④口③ |③---|
口②③口 |--④-|
60
⑥④口⑥ |①-②-|
口②③口 |③-④-|
⑤口①⑤ |--⑤-|
口口口口 |⑥---|
61
口口⑤口 |①-②-|
口④口⑦ |③-④-|
⑧②口口 |⑤-⑥-|
口⑥③① |⑦-⑧-|
62
②④口③ |--①-|
①口口口 |--②-|
口口⑤口 |③-④-|
口⑥口口 |⑤-⑥-|
63
⑧口①口 |①-②-|
口②口⑦ |③-④-|
口⑥口③ |⑤-⑥-|
④口⑤口 |⑦-⑧-|
64
口④口⑤ |--①-|
①口③口 |--②-|
②口口口 |③-④-|
口⑥口口 |⑤-⑥-|
65
口口⑤口 |①-②-|
口④口⑦ |③-④-|
⑧⑥③口 |⑤-⑥-|
②口口① |⑦-⑧-|
66
②⑥口口 |--①-|
①口⑤口 |--②-|
口口口③ |③-④-|
口④口口 |⑤-⑥-|
67
口口⑤① |①-②-|
⑥②口口 |③-④-|
口口③⑦ |⑤-⑥-|
④⑧口口 |⑦-⑧-|
68
⑦④口口 |①-②-|
⑥口③口 |③-④-|
⑤②口口 |--⑤-|
口口①口 |⑥-⑦-|
69
口口口口 |----|
口口口③ |①---|
口口口② |②-③-|
口①④口 |--④-|
70
口⑤④③ |--①-|
②口口口 |②---|
①口口口 |③---④-|
口口口口 |--⑤---|
71
口口口口 |----|
口口口① |①---|
口④口口 |②---|
口②③口 |③-④-|
72
口②②口 |①---|
口口①口 |②---|
口口口口 |③---④-|
③④⑤口 |--⑤---|
73
口口口口 |--①-|
①⑤口② |②-③-|
③口⑥④ |④-⑤-|
口⑦口口 |⑥-⑦-|
74
②③④口 |--①-|
口口口口 |----|
口口口口 |②---③-|
口口①① |--④---|
75
口口口口 |①-②-|
④口⑥② |--③-|
③口⑤① |④---|
口口口口 |⑤-⑥-|
76
②口口② |--①-|
口口口口 |--②-|
口口口口 |----|
口①①口 |----|
77
口口①口 |----|
口②口口 |①-②-|
口口⑤③ |③-④-|
④⑥口口 |⑤-⑥-|

口口口口
⑦口口⑧ |--⑦-|
口口口口 |⑧---|
口口口口 |----|
78
口①①口 |----|
口口口口 |①---|
②④口② |②---|
口口③口 |③-④-|

⑥口口⑥
口口⑤口 |⑤---|
口口口口 |⑥---|
口口口口 |----|
79
口⑦口口 |--①-|
口⑤⑥口 |②-③-|
口③④口 |④-⑤-|
口①②口 |⑥-⑦-|

⑨口口⑨
口口口口 |--⑧-|
⑧口口⑧ |----|
口口口口 |⑨---|
80
口口口口 |①---|
⑤口②⑤ |②-③-|
口①①口 |--④-|
④③口④ |--⑤-|
81
口口口口 |--①-|
口口口口 |----|
口①①口 |----|
口口口口 |----|
82
①②③口 |----|
口口口口 |①-②-|
口口口口 |③---|
口口口口

口口口口
口口⑤④ |④-⑤-|
口⑥口口 |--⑥-|
口口口口 |----|
83
口口口口 |--①-|
口口口口 |②-③-|
口口口⑤ |④-⑤-|
④③②①

口口口口
⑧口口口 |⑥-⑦-|
口⑦⑥口 |--⑧-|
口口口口 |----|
84
①②③④ |----|
口口口口 |①-②-|
口口口口 |③-④-|
口口口口

口口口口
⑦⑥⑤口 |--⑤-|
口⑧口口 |⑥-⑦-|
口口口口 |--⑧-|
85
口口口口 |①---|
口口口口 |②-③-|
④口①⑤ |④-⑤-|
②口口③

口⑧口口
⑥口口⑦ |⑥-⑦-|
口口口口 |--⑧-|
口口口口 |----|
86
口口口① |----|
口口口口 |①---|
口口②口 |②---|
口口口口

口⑤⑥口
口③④口 |③-④-|
口口口口 |--⑤-|
口口口口 |⑥---|
87
口口口口 |--①-|
口口口口 |②-③-|
④③②① |④---|
口口口口

口口口口
⑦口口口 |⑤-⑥-|
口口口口 |--⑦-|
口⑥⑤口 |----|
88
口口①口 |----|
口口口口 |①---|
②③口口 |②-③-|
口口口口

口口口口
口⑥⑦口 |④-⑤-|
口口④⑤ |--⑥-|
口口口口 |⑦---|
89
口口口① |①---|
口口口口 |②-③-|
④口口⑤ |④-⑤-|
②口口③

口⑧⑧口
⑥口口⑦ |⑥-⑦-|
口口口口 |--⑧-|
口口口口 |----|
90
口口口口 |----|
口③口口 |①-②-|
口口②口 |③---|
口①口口

口⑥口⑤
口口口口 |④-⑤-|
④口口口 |--⑥-|
口口口口 |----|
91
口口口口 |--①-|
口口口⑤ |②-③-|
④口口③ |④-⑤-|
②口口①

口⑧口⑦
⑥口口口 |⑥-⑦-|
口口口口 |--⑧-|
口口口口 |----|
92
口口口口 |----|
口口口口 |①-②-|
口③④口 |③-④-|
口①②口

口⑦⑧口
口⑤⑥口 |⑤-⑥-|
⑨口口口 |⑦-⑧-|
口口口口 |--⑨-|
93
口口口口 |①---|
①③口② |②-③-|
口⑤口④ |④-⑤-|
口口口口

口⑧⑧口
口口口口 |⑥-⑦-|
口口口口 |--⑧-|
口⑦口⑥ |----|
94
口口口口 |----|
④③②① |①-②-|
口口口口 |③-④-|
口口口口

⑧口口⑧
口口口口 |⑤-⑥-|
口⑦⑥⑤ |⑦---|
口口口口 |⑧---|
95
口③口口 |----|
①口口口 |①-②-|
口口口口 |--③-|
口口②口

口口口口
口口④⑥ |④-⑤-|
口⑤口口 |--⑥-|
口⑦口口 |⑦---|
96
口口口口 |----|
口口口口 |①-②-|
④口口③ |③-④-|
②口口①

口⑧⑦口
口⑥⑤口 |⑤-⑥-|
口⑨口口 |⑦-⑧-|
口口口口 |--⑨-|
97
口口⑤口 |①---|
①④口③ |②-③-|
口口②口 |--④-|
口口口口 |⑤---|
98
③口口③ |----|
口口口口 |①---|
口②②口 |②---|
①口口① |③---|
99
口⑤④口 |①---|
⑥③②⑥ |②-③-|
①口口① |④-⑤-|
口口口口 |--⑥-|
100
②口口② |--①-|
口③③口 |②---|
口①①口 |----|
口口口口 |③---|
101
口⑥⑥口 |①---|
⑤口口④ |②-③-|
③口口② |④-⑤-|
口①①口 |--⑥-|
102
口口口③ |--①-|
口②口口 |②-③-|
口口①口 |----|
④口口⑤ |④-⑤-|
103
⑤口口口 |①-②-|
③口口④ |③-④-|
①⑦口② |⑤---|
口口⑥口 |⑥-⑦-|
104
口口口③ |①---|
口④①口 |②-③-|
口口⑤口 |--④-|
②口口口 |--⑤-|
105
①④口④ |①---|
③口③口 |②---|
口②口② |③---|
口口口口 |④---|
106
口口口口 |----|
③口口③ |①---|
口②②口 |②---|
①口口① |③---|
107
口③②口 |①---|
⑥⑤④⑥ |②-③-|
口口口口 |④-⑤-|
口①①口 |--⑥-|
108
口口③口 |--①-|
口④④口 |②-③-|
口②口口 |----|
口口口① |④---|
109
口⑤⑤口 |①---|
口口口③ |②-③-|
②口口口 |--④-|
④①①④ |--⑤-|
110
③口口口 |--①-|
口口口口 |②-③-|
④口②④ |----|
口①口口 |④---|
111
⑤口口口 |①-②-|
①②③④ |③-④-|
口口口口 |⑤---|
口⑥⑦口 |⑥-⑦-|
112
口⑤口口 |①-②-|
⑤③④口 |③-④-|
口①②口 |----|
口口口口 |⑤---|
113
口口①口 |①---|
口口口① |②---|
②④口③ |③---|
口②③口 |--④-|
114
⑥④口⑥ |①-②-|
口②③口 |③-④-|
⑤口①⑤ |--⑤-|
口口口口 |⑥---|
115
口口口口 |①-②-|
口③④口 |③-④-|
口⑤②⑧ |⑤-⑥-|
⑦①⑥口 |⑦-⑧-|
116
口⑤⑥⑦ |①-②-|
①口口② |③-④-|
③口口口 |⑤---⑥-|
口口口④ |--⑦---|
117
①⑦口口 |①-②-|
⑤口⑧⑥ |③-④-|
口口口② |⑤-⑥-|
③口④口 |⑦-⑧-|
118
⑦口④口 |①-②-|
⑥③口口 |③-④-|
⑤①②口 |⑤---⑥-|
口口口口 |--⑦---|
119
口口口口 |①-②-|
口④③口 |③-④-|
⑧②⑤口 |⑤-⑥-|
口⑥①⑦ |⑦-⑧-|
120
⑦⑥⑤口 |①-②-|
②口口① |③-④-|
口口口③ |⑤---⑥-|
④口口口 |--⑦---|
121
口口⑦① |①-②-|
⑥⑧口⑤ |③-④-|
②口口口 |⑤-⑥-|
口④口③ |⑦-⑧-|
122
口④口口 |①-②-|
口口③口 |③-④-|
口②①口 |⑤-⑥-|
⑧⑦⑥⑤ |⑦-⑧-|

accuracy: 100%
最終更新:2023年07月20日 00:35