アットウィキロゴ
KINGWORLD
白上フブキ

EXTREME

Level: 9.8
BPM: 240
Notes: 960

1
口口口口 |(240)----|
口口口口 |----|
口口口口 |----|
口口口口 |----|
2
③口口口 |(480)①---|
②口口口 |②---|
①口口口 |③---|
口口口口
3
口口口口 |①---|
口口口① |②---|
口口口② |③---|
口口口③
4
口①②③ |①---|
口口口口 |②---|
口口口口 |③---|
口口口口
5
口口口口 |①---|
口口口口 |②---|
口口口口 |③---|
③②①口
6
口口口口 |①---|
口口口① |②---|
口口口② |③---|
口口口③
7
③口口口 |①---|
②口口口 |②---|
①口口口 |③---|
口口口口
8
口口口口 |①---|
口口口口 |②---|
口口口口 |③---|
③②①口
9
口③③口 |(240)①---②-|
口②②口 |--③---|
口①①口 |----|
口口口口
10
口口口口 |----|
口口口口 |----|
口口口口 |----|
口口口口
11
①口⑥① |①---|
⑥②③口 |②-③-|
①④⑤① |④-⑤-|
口口口口 |--⑥-|
12
②③口② |--①-|
口口口③ |②---|
②口口② |----|
口口①口 |③---|
13
⑥口口⑥ |①---|
口③②口 |②-③-|
口①口口 |④-⑤-|
口⑤④① |--⑥-|
14
口③③口 |--①-|
③口口③ |②-③-|
②④④口 |----|
口口口① |④---|
15
⑤⑨⑧⑦ |①-②-|
口④③口 |③-④-|
⑥口口② |⑤-⑥-|
口口①口 |⑦⑧⑨-|
16
口口⑧口 |--①-|
⑦口口① |②-③④|
口⑤④③ |⑤-⑥-|
②口口⑥ |⑦-⑧-|
17
口口口① |①-②-|
⑧③②口 |③-④-|
④⑦口⑤ |⑤-⑥-|
口口⑥口 |⑦-⑧-|
18
口⑤⑥④ |①-②-|
口⑦⑧③ |③-④-|
口⑨⑩口 |--⑤⑥|
①②口口 |⑦⑧⑨⑩|
19
⑤口口口 |①---|
①口口口 |②---|
④口口② |③---|
口口③口 |④-⑤-|

口⑧⑧口
口口口⑦ |--⑥-|
口口口口 |⑦---|
口口口⑥ |⑧---|
20
口口口⑤ |①---|
口口口口 |②---|
②①①④ |③---|
口③口口 |④-⑤-|

口⑧⑧口
⑦口口口 |--⑥-|
口口口口 |⑦---|
⑥口口口 |⑧---|
21
⑥口口⑤ |①-②-|
口⑦④口 |③-④-|
①①口③ |⑤---|
口口②口 |⑥-⑦-|

口口口口
口口口⑨ |--⑧-|
口⑧⑧口 |----|
口口⑩口 |⑨-⑩-|
22
②②④④ |①-②-|
⑤口口⑥ |--③-|
①口口③ |④---|
⑤口口⑥ |⑤-⑥-|
23
口口口口 |--①-|
口①②口 |--②-|
口②①口 |----|
口①②口 |----|
24
①口口⑥ |①---|
②②口④ |②---|
③口口口 |③-④-|
⑤口口口 |⑤-⑥-|

口口口口
口口⑧口 |⑦-⑧-|
口⑨口口 |⑨---|
口⑦⑨⑩ |⑩---|
25
①口②口 |①---|
②口⑥口 |②---|
③口口④ |③-④-|
⑤口口口 |⑤-⑥-|

口口口⑧
口⑨口口 |⑦-⑧-|
口口口口 |⑨---|
口⑦⑨⑩ |⑩---|
26
①口④口 |①-②-|
③口⑧⑥ |③-④-|
⑤口口② |⑤-⑥-|
⑦口口口 |⑦-⑧-|

口口口⑩
口⑪口口 |⑨-⑩-|
口口⑬⑫ |⑪---|
口⑨⑪口 |⑫-⑬-|
27
②③④口 |①---|
⑥口口⑥ |②-③-|
口①口口 |④---|
⑤口口口 |⑤-⑥-|
28
口口口口 |--①-|
口口口口 |----|
②③④⑤ |②-③-|
口①①口 |④-⑤-|
29
⑤②②③ |①-②-|
口口③⑤ |--③-|
④口口口 |--④-|
①④口口 |--⑤-|
30
口口口口 |--①-|
①口口口 |②-③-|
⑥②口⑤ |④-⑤-|
口口③④ |--⑥-|
31
⑦口②⑦ |①-②-|
口①口③ |③-④-|
口口⑥口 |⑤-⑥-|
④⑤口口 |--⑦-|
32
口①口口 |----|
②口口口 |--①-|
口③口口 |②-③-|
④口口口 |④---|
33
⑤口②⑤ |①---|
口①①② |②-③-|
③口口口 |--④-|
口③④口 |--⑤-|
34
口①口口 |----|
①口②口 |①---|
口③口② |②---|
③口口口 |③---|
35
①③③① |①---|
③口口③ |--②-|
口口口口 |③---|
口②②口 |----|
36
口口口口 |----|
口②口④ |----|
①口③口 |①-②-|
口口口口 |③-④-|
37
口⑤⑦⑦ |①-②-|
⑥口④口 |③-④-|
口①口③ |⑤-⑥-|
口口②口 |--⑦-|
38
③③口口 |--①-|
口口口口 |--②-|
口④口口 |--③-|
①①②② |--④-|
39
④口口③ |①---|
②④口① |②---|
口口③① |③---|
口②口口 |④---|
40
口①①口 |①---|
口口口口 |--②-|
②口口③ |③---|
②④口③ |--④-|
41
口⑤⑥口 |①---|
①④口② |②-③-|
口口口口 |--④-|
口口③口 |⑤-⑥-|
42
②口口③ |①---|
④口①④ |②---|
口③②口 |③---|
④口口④ |④---|
43
口口口口 |----|
口口口口 |----|
口口口口 |----|
口口口口 |----|
44
口②③口 |----|
②口口③ |①---|
口口口① |②---|
口口①口 |③---|
45
⑤口⑥口 |①---|
⑥④口口 |②-③-|
口①③⑥ |④-⑤-|
①⑥口② |--⑥-|
46
③③口② |--①-|
口口①② |②---|
②①口口 |----|
②口口口 |③---|
47
口口②口 |①---|
⑥口③⑥ |②-③-|
口④口口 |④-⑤-|
口⑤①① |--⑥-|
48
③口口③ |--①-|
口②口口 |②-③-|
③口口③ |----|
口④①④ |④---|
49
④⑥①口 |①-②-|
⑥口⑥① |--③-|
口②口⑤ |④-⑤-|
②口③口 |--⑥-|
50
口口②口 |--①-|
口②口② |--②-|
口口口口 |--③-|
④①③口 |--④-|
51
③④口④ |①---|
①口④口 |②---|
③①②口 |③---|
口口口② |④---|
52
③口②口 |----|
口③口② |①---|
口①口口 |②---|
①口口口 |③---|
53
口⑥⑦口 |①---|
⑤口⑦口 |②-③-|
口④③① |④-⑤-|
口口①② |⑥-⑦-|
54
②口口② |--①-|
③①口③ |②---|
②口口② |----|
口口口口 |③---|
55
口⑦口⑥ |①---|
口⑦⑤口 |②-③-|
口③口④ |④-⑤-|
②①①口 |⑥-⑦-|
56
②口口口 |--①-|
③口口② |②---|
②口①口 |----|
口③口② |③---|
57
口口②① |①-②-|
口③口口 |③-④-|
口④⑦⑦ |⑤---|
⑥口⑤口 |⑥-⑦-|
58
①③②② |--①-|
①口口② |--②-|
口口口口 |----|
口口口口 |③---|
59
④口口口 |①---|
口口①口 |②---|
②口口口 |③---|
口口口③ |--④-|
60
口⑥口④ |①-②-|
①⑤③⑥ |③-④-|
⑥②⑤口 |--⑤-|
口口⑥口 |⑥---|
61
口⑨⑧⑦ |①-②-|
⑤口④口 |③-④-|
口③口口 |⑤-⑥-|
①⑥口② |⑦⑧⑨-|
62
⑥口口口 |--①-|
口口⑦① |②-③④|
口⑤④③ |⑤-⑥-|
②⑧口口 |⑦-⑧-|
63
口口②① |①-②-|
⑧③口口 |③-④-|
④⑦⑥口 |⑤-⑥-|
口口口⑤ |⑦-⑧-|
64
①①口口 |--①-|
口口口口 |--②-|
口⑥⑤口 |③-④-|
②③口④ |⑤-⑥-|
65
⑤⑨⑧⑦ |①-②-|
口④③口 |③-④-|
⑥口口② |⑤-⑥-|
口口①口 |⑦⑧⑨-|
66
口口⑧口 |--①-|
⑦口口① |②-③④|
口⑤④③ |⑤-⑥-|
②口口⑥ |⑦-⑧-|
67
口口口① |①-②-|
⑧③②口 |③-④-|
④⑦口⑤ |⑤-⑥-|
口口⑥口 |⑦-⑧-|
68
口⑤⑥④ |①-②-|
口⑦⑧③ |③-④-|
口⑨⑩口 |--⑤⑥|
①②口口 |⑦⑧⑨⑩|
69
口口口⑤ |①---|
①口口⑤ |②---|
③口口② |③-④-|
口④口② |--⑤-|
70
口②口口 |--①-|
①③③口 |②---|
口④④口 |③---④-|
口⑤⑤口 |--⑤---|
71
②④口③ |①---|
②口口③ |②---|
口口口⑤ |③---|
口口口① |④-⑤-|
72
口⑤⑤口 |①---|
口④④口 |②---|
口③③口 |③---④-|
口①②② |--⑤---|
73
⑧口口① |①-②-|
⑧口口口 |③-④-|
③口口⑤ |⑤-⑥-|
⑥②④⑦ |⑦-⑧-|
74
口口口① |--①-|
口②②① |----|
口③③口 |②---③-|
口④④口 |--④---|
75
②⑤⑥④ |①-②-|
口口口口 |--③-|
⑤口口⑥ |④---|
①口口③ |⑤-⑥-|
76
口口口口 |--①-|
①②②① |--②-|
口②②口 |----|
口口口口 |----|
77
口⑦口① |①---|
⑤口口② |②-③-|
③口口④ |④-⑤-|
口口口⑥ |⑥-⑦-|

口口口口
口口⑩口 |⑧-⑨-|
口⑨口口 |⑩---|
⑪⑩⑧口 |⑪---|
78
口口口① |①---|
⑤②口② |②---|
口③口③ |③---|
口口口④ |④-⑤-|

口口口口
口口⑦口 |⑥---|
口口口口 |⑦---|
⑧⑦⑥口 |⑧---|
79
⑥⑧口① |①-②-|
口④口③ |③-④-|
②口口⑤ |⑤-⑥-|
口口口⑦ |⑦-⑧-|

口口口口
⑩口口口 |⑨-⑩-|
⑫口⑪口 |⑪---|
⑫⑪⑨口 |⑫---|
80
②口⑤① |①---|
④口③① |②-③-|
口②口④ |--④-|
口⑤口③ |--⑤-|
81
口①口口 |--①-|
口口口① |----|
①口口口 |----|
口口①口 |----|
82
口口口口 |①---|
口口②口 |②-③-|
口③口口 |④---|
①①④口

口⑥口⑦
⑤口口口 |⑤-⑥-|
口口口⑦ |--⑦-|
口口口口 |----|
83
口口②口 |①-②-|
口③口口 |③-④-|
①①④口 |⑤-⑥-|
口⑤口⑥

⑨口口口
口口口⑧ |⑦-⑧-|
⑨口口口 |--⑨-|
⑦口口口 |----|
84
口口口口 |①---|
①①口口 |②-③-|
口④口② |④-⑤-|
⑤口③口

口口口口
口口口⑧ |--⑥-|
⑦口⑨口 |⑦-⑧-|
口口口⑥ |--⑨-|
85
①①口② |①---|
口口③口 |②-③-|
口④口口 |④-⑤-|
⑤口口口

口口⑧口
口口口⑧ |⑥-⑦-|
⑦口口⑥ |--⑧-|
口⑦口口 |----|
86
②口口口 |①---|
口口口口 |②---|
③口口口 |③---|
口口①①

口口口口
口⑥⑤口 |④-⑤-|
口口口口 |--⑥-|
口④⑦口 |⑦---|
87
②口口口 |①-②-|
口口口③ |③-④-|
④口①① |⑤---|
口口口⑤

口口⑦口
口⑥口口 |⑥-⑦-|
口口口口 |--⑧-|
口⑧⑧口 |----|
88
②口口口 |①---|
口口①① |②---|
口④口口 |③-④-|
③口口口

口⑧口口
口⑦口口 |⑤-⑥-|
口口口⑥ |--⑦-|
口口⑤口 |⑧---|
89
口口①① |①---|
③口口② |②-③-|
⑤口口④ |④-⑤-|
口口口口

口口口⑧
口口⑧口 |⑥-⑦-|
口口口口 |--⑧-|
⑦⑦口⑥ |----|
90
①口④口 |①---|
③口口⑤ |②-③-|
口口②口 |④-⑤-|
口口口口

口口口⑧
口口口口 |⑥-⑦-|
⑥口口⑦ |--⑧-|
⑧口口口 |----|
91
①口③口 |①-②-|
④口口⑤ |③-④-|
口口②口 |⑤-⑥-|
口口口⑥

口口口⑧
口口口口 |⑦-⑧-|
⑦口口口 |--⑨-|
⑨口⑨口 |----|
92
①口口口 |①---|
③口⑤② |②-③-|
口口口④ |④-⑤-|
口口口口

口口⑧口
口口口⑩ |⑥-⑦-|
⑥口⑦口 |⑧-⑨-|
⑨口口口 |--⑩-|
93
①①口② |①---|
③口口口 |②-③-|
口口口④ |④-⑤-|
口口⑤口

口口口口
口口⑧口 |⑥-⑦-|
⑥口口口 |--⑧-|
⑧口口⑦ |----|
94
①口②口 |①---|
③口口⑤ |②-③-|
口口口④ |④-⑤-|
口口口口

口口口⑦
口口口口 |⑥-⑦-|
⑥口⑧口 |⑧-⑨-|
⑨口口⑩ |⑩---|
95
①口口口 |①---|
③口口④ |②-③-|
口口口② |--④-|
口口口口

口口口口
口口⑧口 |⑤-⑥-|
⑤口口口 |--⑦-|
⑦口⑥口 |⑧---|
96
①口口口 |①---|
③口口② |②-③-|
口口⑤口 |④-⑤-|
口口口④

口口口口
口口口⑩ |⑥-⑦-|
⑥口口⑧ |⑧-⑨-|
⑨口⑦口 |--⑩-|
97
②①①④ |①---|
口③③口 |②-③-|
口⑤⑤口 |--④-|
口口口口 |⑤---|
98
口②口③ |----|
②口③口 |①---|
口口口① |②---|
口口①口 |③---|
99
⑤口⑥口 |①---|
⑥④口口 |②-③-|
口①③⑥ |④-⑤-|
①⑥口② |--⑥-|
100
③③口② |--①-|
口口①② |②---|
②①口口 |----|
②口口口 |③---|
101
口口⑤口 |①---|
⑥口④⑥ |②-③-|
口③口口 |④-⑤-|
口②①① |--⑥-|
102
③口口③ |--①-|
口②口口 |②-③-|
③⑤口③ |----|
④口①口 |④-⑤-|
103
口④③口 |①-②-|
⑤口⑦② |③-④-|
口口①口 |⑤---|
口⑥口口 |⑥-⑦-|
104
①口口口 |①---|
口①口③ |②-③-|
①⑤③口 |--④-|
②口④③ |--⑤-|
105
口③①③ |①---|
②口口口 |②---|
口口口① |③---|
④②④口 |④---|
106
②口口③ |----|
口②③口 |①---|
口口①口 |②---|
口口口① |③---|
107
口⑥⑥口 |①---|
口口口口 |②-③-|
①③口⑤ |④-⑤-|
②①④口 |--⑥-|
108
③口口④ |--①-|
口②④③ |②-③-|
③口①口 |----|
口口口③ |④---|
109
口④③口 |①---|
②口口⑤ |②-③-|
④①口③ |--④-|
①口⑤口 |--⑤-|
110
③口口③ |--①-|
口口口口 |②-③-|
④④②口 |----|
口①口口 |④---|
111
口②口口 |①-②-|
①口③口 |③-④-|
⑦口口④ |⑤---|
⑥口⑤口 |⑥-⑦-|
112
口⑤口④ |①-②-|
⑤①口③ |③-④-|
口口②口 |----|
口口口口 |⑤---|
113
口口③口 |①---|
④口口③ |②---|
②口口① |③---|
口②①口 |--④-|
114
口口口⑥ |①-②-|
口⑤②口 |③-④-|
口①⑤③ |--⑤-|
⑥口④口 |⑥---|
115
①②③口 |①-②-|
口口口⑧ |③-④-|
口口口⑦ |⑤-⑥-|
口⑥⑤④ |⑦-⑧-|
116
口口口① |①-②-|
②⑤⑤口 |③-④-|
③⑥⑥口 |⑤---⑥-|
④⑦⑦口 |--⑦---|
117
①②③⑥ |①-②-|
⑦口口⑤ |③-④-|
⑧口口④ |⑤-⑥-|
口口口口 |⑦-⑧-|
118
口⑦⑦口 |①-②-|
口⑥⑥口 |③-④-|
口⑤⑤口 |⑤---⑥-|
①④③② |--⑦---|
119
③口口口 |①-②-|
②口口④ |③-④-|
①口口⑤ |⑤-⑥-|
⑦⑧口⑥ |⑦-⑧-|
120
口②⑤⑤ |①-②-|
口③⑥⑥ |③-④-|
口④⑦⑦ |⑤---⑥-|
口口①口 |--⑦---|
121
口口⑦口 |①-②-|
⑥口⑧口 |③-④-|
⑤口口口 |⑤-⑥-|
④①②③ |⑦-⑧-|
122
⑧口口⑧ |①-②-|
⑦④口⑦ |③-④-|
⑥③①⑥ |⑤-⑥-|
⑤②口⑤ |⑦-⑧-|

accuracy: 100%
最終更新:2023年07月20日 00:46