アットウィキロゴ
進め↑BAKATARATION
バカタレ共

BASIC

Level: 2
BPM: 148
Notes: 232

1
口口口口 |----|
口口口口 |----|
口口口口 |----|
口口口口 |----|
2
口口口口 |----|
口口口口 |----|
口口口口 |----|
口口口口 |----|
3
口口口口 |①---|
口①①口 |----|
口②②口 |②---|
口口口口 |----|
4
口口口口 |①---|
①②③口 |②---|
口口口口 |③---|
口口口口 |----|
5
口口口口 |①---|
口②②口 |----|
口①①口 |②---|
口口口口 |----|
6
口口口口 |①---|
②口口② |----|
①口口① |②---|
口口口口 |----|
7
口口口口 |①---|
口①①口 |----|
口②②口 |②---|
口口口口 |----|
8
口口口口 |①---|
口③②① |②---|
口口口口 |③---|
口口口口 |----|
9
口口口口 |①---|
口②②口 |----|
口①①口 |②---|
口口口口 |----|
10
口口口口 |①---|
②口口② |----|
①口口① |②---|
口口口口 |----|
11
口②①口 |①---|
口口口口 |----|
口口口口 |②---|
口口口口 |----|
12
口口口口 |①---|
口②②口 |----|
口①①口 |②---|
口口口口 |----|
13
口口口口 |①---|
①口口② |----|
口口口口 |②---|
口口口口 |----|
14
口口口口 |①---|
口口口口 |----|
①口口② |②---|
口口口口 |----|
15
口口口口 |①---|
口①②口 |②---|
口④③口 |③---|
口口口口 |④---|
16
口口口口 |①---|
口①②口 |②---|
口④③口 |③---|
口口口口 |④---|
17
口口口口 |①---|
②口口① |----|
口口口口 |②---|
口口口口 |----|
18
口口口口 |①---|
口口口口 |----|
②口口① |②---|
口口口口 |----|
19
口口口口 |①---|
口②①口 |②---|
口③④口 |③---|
口口口口 |④---|
20
口口口口 |①---|
口②①口 |②---|
口③④口 |③---|
口口口口 |④---|
21
口口口口 |①---|
口②口口 |----|
口口口口 |②---|
口①口口 |----|
22
口口口口 |①---|
口口②口 |----|
口口口口 |②---|
口口①口 |----|
23
口口口口 |①---|
②口口口 |----|
口口口口 |②---|
①口口口 |----|
24
口口口口 |①---|
口口口② |----|
口口口口 |②---|
口口口① |----|
25
口口口口 |①---|
口口口口 |②---|
①②③口 |③---|
口口口口 |----|
26
口③②① |①---|
口口口口 |②---|
口口口口 |③---|
口口口口 |----|
27
口口口口 |①---|
口口③口 |②---|
口②口口 |③---|
口口①口 |----|
28
口①①口 |①---|
口②②口 |②---|
口③③口 |③---|
口④④口 |④---|
29
口口口口 |----|
口口口口 |----|
口口口口 |----|
口口口口 |----|
30
口口口口 |①---|
口口口口 |②---|
口③②① |③---|
口口口口 |----|
31
口口口口 |①---|
①②③口 |②---|
口口口口 |③---|
口口口口 |----|
32
②口口② |①---|
口口口口 |----|
①口口① |②---|
口口口口 |----|
33
口口①口 |①---|
口②口口 |②---|
口口③口 |③---|
口口口口 |----|
34
口口口口 |①---|
口口口口 |②---|
①②③口 |③---|
口口口口 |----|
35
口口口口 |①---|
口③②① |②---|
口口口口 |③---|
口口口口 |----|
36
①口口① |①---|
②口口② |----|
口口口口 |②---|
口口口口 |----|
37
口口口口 |①---|
口口口口 |----|
①口口① |----|
口口口口 |----|
38
口口口口 |①---|
口②②口 |----|
口①①口 |②---|
口口口口 |----|
39
①口口① |①---|
口口口口 |----|
口口口口 |----|
口口口口 |----|
40
口口口口 |①---|
口①①口 |----|
口②②口 |②---|
口口口口 |----|
41
口口口口 |①---|
①②③口 |②---|
口口口口 |③---|
口口口口 |----|
42
口口口口 |①---|
口②②口 |----|
口①①口 |②---|
口口口口 |----|
43
口口口口 |①---|
②口口② |----|
①口口① |②---|
口口口口 |----|
44
口口口口 |①---|
口①①口 |----|
口②②口 |②---|
口口口口 |----|
45
口口口口 |①---|
口③②① |②---|
口口口口 |③---|
口口口口 |----|
46
口口口口 |①---|
口②②口 |----|
口①①口 |②---|
口口口口 |----|
47
口口口口 |①---|
②口口② |----|
①口口① |②---|
口口口口 |----|
48
口②①口 |①---|
口口口口 |----|
口口口口 |②---|
口口口口 |----|
49
口口口口 |①---|
口②②口 |----|
口①①口 |②---|
口口口口 |----|
50
口口口口 |①---|
口口口口 |----|
①口口① |----|
口口口口 |----|
51
口口口口 |①---|
①口口① |----|
口口口口 |----|
口口口口 |----|
52
口口口口 |①---|
口①②口 |②---|
口④③口 |③---|
口口口口 |④---|
53
口口口口 |①---|
口①②口 |②---|
口④③口 |③---|
口口口口 |④---|
54
口口口口 |①---|
②口口① |----|
口口口口 |②---|
口口口口 |----|
55
口口口口 |①---|
口口口口 |----|
②口口① |②---|
口口口口 |----|
56
口口口口 |①---|
口②①口 |②---|
口③④口 |③---|
口口口口 |④---|
57
口口口口 |①---|
口②①口 |②---|
口③④口 |③---|
口口口口 |④---|
58
口口口口 |①---|
口②口口 |----|
口口口口 |②---|
口①口口 |----|
59
口口口口 |①---|
口口②口 |----|
口口口口 |②---|
口口①口 |----|
60
口口口口 |①---|
②口口口 |----|
口口口口 |②---|
①口口口 |----|
61
口口口口 |①---|
口口口② |----|
口口口口 |②---|
口口口① |----|
62
口口口口 |①---|
口口口口 |②---|
①②③口 |③---|
口口口口 |----|
63
口③②① |①---|
口口口口 |②---|
口口口口 |③---|
口口口口 |----|
64
口口口口 |①---|
口口③口 |②---|
口②口口 |③---|
口口①口 |----|
65
口①①口 |①---|
口②②口 |②---|
口③③口 |③---|
口④④口 |④---|
66
口口口口 |----|
口口口口 |----|
口口口口 |----|
口口口口 |----|
67
口口口口 |①---|
口口口口 |②---|
口③②① |③---|
口口口口 |----|
68
口口口口 |①---|
①②③口 |②---|
口口口口 |③---|
口口口口 |----|
69
②口口② |①---|
口口口口 |----|
①口口① |②---|
口口口口 |----|
70
口口①口 |①---|
口②口口 |②---|
口口③口 |③---|
口口口口 |----|
71
口口口口 |①---|
口口口口 |②---|
①②③口 |③---|
口口口口 |----|
72
口口口口 |①---|
口③②① |②---|
口口口口 |③---|
口口口口 |----|
73
①口口① |①---|
②口口② |----|
口口口口 |②---|
口口口口 |----|
74
口口口口 |①---|
口口口口 |----|
①口口① |----|
口口口口 |----|
75
口口口口 |①---|
口②②口 |----|
口①①口 |②---|
口口口口 |----|
76
①口口① |①---|
口口口口 |----|
口口口口 |----|
口口口口 |----|

accuracy: 100%
最終更新:2023年07月21日 22:19