アットウィキロゴ
進め↑BAKATARATION
バカタレ共

ADVANCED

Level: 4
BPM: 148
Notes: 382

1
口口口口 |----|
口口口口 |----|
口口口口 |----|
口口口口 |----|
2
口口口口 |----|
口①①口 |----|
口口口口 |----|
口口口口 |①---|
3
口口口口 |①---|
②口口④ |②---|
口口口口 |③---|
①口口③ |④---|
4
口口口口 |①---|
口②④口 |②---|
口口口口 |③---|
口①③口 |④---|
5
②口口⑤ |①---|
④口口口 |②---|
①口口③ |③-④-|
口口口口 |⑤---|
6
口②⑤口 |①---|
口④口口 |②---|
口①③口 |③-④-|
口口口口 |⑤---|
7
口口口口 |①---|
②口口④ |②---|
口口口口 |③---|
口①③口 |④---|
8
口口口口 |①---|
口②④口 |②---|
口口口口 |③---|
①口口③ |④---|
9
②口口⑤ |①---|
④口口口 |②---|
口①③口 |③-④-|
口口口口 |⑤---|
10
口②⑤口 |①---|
口④口口 |②---|
①口口③ |③-④-|
口口口口 |⑤---|
11
口①口口 |①---|
口口②口 |②---|
口③口口 |③---|
口口④口 |④---|
12
口口口口 |①---|
口③③口 |②--③|
②口口② |----|
①口口① |----|
13
口口口口 |①---|
①口口④ |②---|
口②③口 |③---|
口口口口 |④---|
14
口口口口 |①---|
口②③口 |②---|
①口口④ |③---|
口口口口 |④---|
15
⑤⑤④④ |①---|
口口②口 |②---|
③①口口 |③-④-|
口口口口 |⑤---|
16
④④⑤⑤ |①---|
口②口口 |②---|
口口①③ |③-④-|
口口口口 |⑤---|
17
口口口口 |①---|
④口口① |②---|
口③②口 |③---|
口口口口 |④---|
18
口口口口 |①---|
口③②口 |②---|
④口口① |③---|
口口口口 |④---|
19
④④⑤⑤ |①---|
口②口口 |②---|
口口①③ |③-④-|
口口口口 |⑤---|
20
⑤⑤④④ |①---|
口口②口 |②---|
③①口口 |③-④-|
口口口口 |⑤---|
21
口口口口 |①---|
口口口口 |②---|
口④③口 |③---|
口②①口 |④---|
22
②②口口 |①---|
口口①口 |----|
口口口口 |②---|
口口口口 |----|
23
口口口口 |①---|
③口口① |②---|
口④②口 |③---|
口口口口 |④---|
24
口口口口 |①---|
口①①口 |----|
口口口口 |②---|
②口口② |----|
25
口口口口 |①---|
口⑤①⑤ |②---|
④②④口 |③-④-|
口口③口 |⑤---|
26
⑤①⑤口 |①---|
口④②④ |②---|
口③口口 |③-④-|
口口口口 |⑤---|
27
口口口口 |①---|
③④口③ |②---|
②口口② |③---|
①口口① |--④-|
28
口口①口 |①---|
④口口④ |②---|
口②②口 |③---|
③口口③ |④---|
29
口口口口 |----|
口口口口 |----|
口口口口 |----|
口口口口 |----|
30
口⑤口⑤ |①---|
口口④② |②---|
口③口口 |③-④-|
口口①口 |⑤---|
31
⑤口⑤口 |①---|
②④口口 |②---|
口口③口 |③-④-|
口①口口 |⑤---|
32
口③口口 |①---|
②口④口 |②---|
口①口口 |③---|
口口口口 |④---|
33
①口①口 |①---|
口②口② |②---|
③口③口 |③---|
口④口④ |④---|
34
口⑤口口 |①---|
口⑤口② |②---|
口口④口 |③-④-|
③口①口 |⑤---|
35
口口⑤口 |①---|
②口⑤口 |②---|
口④口口 |③-④-|
口①口③ |⑤---|
36
口口口口 |①---|
①①口口 |②---|
口口②②
口口口口

③口③口
口④口④
口口口口 |③---|
口口口口 |④---|
37
口口口口 |①---|
口④口口 |②---|
①③①口 |③---|
口②口口 |④---|
38
口②②口 |①---|
口口口口 |----|
①口口① |②---|
口口口口 |----|
39
口口口口 |①---|
口②②口 |----|
①口口① |----|
口口口口 |②---|
40
口口口口 |①---|
②口口④ |②---|
口口口口 |③---|
①口口③ |④---|
41
口口口口 |①---|
口②④口 |②---|
口口口口 |③---|
口①③口 |④---|
42
②口口⑤ |①---|
④口口口 |②---|
①口口③ |③-④-|
口口口口 |⑤---|
43
口②⑤口 |①---|
口④口口 |②---|
口①③口 |③-④-|
口口口口 |⑤---|
44
口口口口 |①---|
②口口④ |②---|
口口口口 |③---|
口①③口 |④---|
45
口口口口 |①---|
口②④口 |②---|
口口口口 |③---|
①口口③ |④---|
46
②口口⑤ |①---|
④口口口 |②---|
口①③口 |③-④-|
口口口口 |⑤---|
47
口②⑤口 |①---|
口④口口 |②---|
①口口③ |③-④-|
口口口口 |⑤---|
48
口①口口 |①---|
口口②口 |②---|
口③口口 |③---|
口口④口 |④---|
49
口口口口 |①---|
口③③口 |②--③|
②口口② |----|
①口口① |----|
50
①口口① |①---|
口口口口 |----|
口③口口 |②---|
口口②口 |③---|
51
口口口口 |①---|
①③口① |----|
口口②口 |②---|
口口口口 |③---|
52
⑤⑤④④ |①---|
口口②口 |②---|
③①口口 |③-④-|
口口口口 |⑤---|
53
④④⑤⑤ |①---|
口②口口 |②---|
口口①③ |③-④-|
口口口口 |⑤---|
54
口④口口 |①---|
口口③口 |②---|
口口②口 |③---|
口①口口 |④---|
55
口口④口 |①---|
口③口口 |②---|
口②口口 |③---|
口口①口 |④---|
56
④④⑤⑤ |①---|
口②口口 |②---|
口口①③ |③-④-|
口口口口 |⑤---|
57
⑤⑤④④ |①---|
口口②口 |②---|
③①口口 |③-④-|
口口口口 |⑤---|
58
口口口口 |①---|
口口口口 |②---|
口④③口 |③---|
口②①口 |④---|
59
②②口口 |①---|
口口①口 |----|
口口口口 |②---|
口口口口 |----|
60
口口口口 |①---|
③口口① |②---|
口④②口 |③---|
口口口口 |④---|
61
口口口口 |①---|
口①①口 |----|
口口口口 |②---|
②口口② |----|
62
口口口口 |①---|
口⑤①⑤ |②---|
④②④口 |③-④-|
口口③口 |⑤---|
63
⑤①⑤口 |①---|
口④②④ |②---|
口③口口 |③-④-|
口口口口 |⑤---|
64
口口口口 |①---|
③④口③ |②---|
②口口② |③---|
①口口① |--④-|
65
口口①口 |①---|
④口口④ |②---|
口②②口 |③---|
③口口③ |④---|
66
口口口口 |----|
口口口口 |----|
口口口口 |----|
口口口口 |----|
67
口⑤口⑤ |①---|
口口④② |②---|
口③口口 |③-④-|
口口①口 |⑤---|
68
⑤口⑤口 |①---|
②④口口 |②---|
口口③口 |③-④-|
口①口口 |⑤---|
69
口③口口 |①---|
②口④口 |②---|
口①口口 |③---|
口口口口 |④---|
70
①口①口 |①---|
口②口② |②---|
③口③口 |③---|
口④口④ |④---|
71
⑤⑤口口 |①---|
口口口② |②---|
口口④口 |③-④-|
③口①口 |⑤---|
72
口口⑤⑤ |①---|
②口口口 |②---|
口④口口 |③-④-|
口①口③ |⑤---|
73
口口口口 |①---|
①①口口 |②---|
口口②②
口口口口

③口③口
口④口④
口口口口 |③---|
口口口口 |④---|
74
口口口口 |①---|
口④口口 |②---|
①③①口 |③---|
口②口口 |④---|
75
口②②口 |①---|
口口口口 |----|
①口口① |②---|
口口口口 |----|
76
②口口② |①---|
口口口口 |----|
①口口① |----|
口口口口 |②---|

accuracy: 100%
最終更新:2023年07月21日 22:31