アットウィキロゴ
進め↑BAKATARATION
バカタレ共

EXTREME

Level: 8
BPM: 148
Notes: 813

1
口口口口 |----|
口口口口 |----|
口口口口 |----|
口口口口 |----|
2
口①口⑧ |①②③④|
⑦口②口 |⑤⑥⑦⑧|
口③口⑥
⑤口④口

⑬⑬⑫口
口⑪口口
口口⑩口 |⑨⑩⑪⑫|
口⑨口口 |⑬---|
3
口口口口 |①-②-|
口④⑤① |③-④⑤|
口口口③
②口口①

口口口口
⑦口口⑧
口口口口 |--⑥-|
口⑥口口 |⑦-⑧-|
4
②④②④ |①-②-|
⑨⑧⑦⑥ |③-④-|
③①③① |⑤---|
口⑤⑤口 |⑥⑦⑧⑨|
5
③⑥①⑦ |①-②-|
口口口⑤ |③-④-|
④⑥②⑦ |⑤-⑥-|
⑧口口口 |⑦-⑧-|
6
口口①口 |①-②-|
口②口口 |③-④-|
口口③口
口④口口

口口口⑥
⑦⑧⑨⑩
⑤口口⑥ |⑤-⑥-|
口口口口 |⑦⑧⑨⑩|
7
口①③口 |①-②-|
口⑦口⑧ |③-④⑤|
口②口口 |--⑥-|
⑥④⑤口 |⑦-⑧-|
8
②④②④ |①-②-|
⑨⑧⑦⑥ |③-④-|
③①③① |⑤---|
口⑤⑤口 |⑥⑦⑧⑨|
9
③⑥①⑦ |①-②-|
口口口⑤ |③-④-|
④⑥②⑦ |⑤-⑥-|
⑧口口口 |⑦-⑧-|
10
口⑥③⑦ |①-②-|
②④⑤③ |③-④⑤|
口⑥①⑦ |--⑥-|
⑧②口① |⑦-⑧-|
11
③口②口 |①-②-|
口⑦⑤口 |③-④⑤|
口④⑥口 |-⑥⑦-|
⑧①口⑨ |⑧-⑨-|
12
③③②② |①-②-|
④口⑤口 |③-④⑤|
口④口⑤ |----|
⑥①①口 |--⑥-|
13
①口口⑤ |①-②③|
⑦口口③ |--④-|
口⑥②口 |⑤-⑥⑦|
口⑧口④ |--⑧-|
14
④①口口 |①-②③|
口⑦③⑧ |--④-|
口口⑥② |⑤-⑥-|
⑤口口口 |⑦-⑧-|
15
③③②② |①-②-|
④⑦⑤⑥ |③-④⑤|
⑦④⑥⑤ |-⑥⑦-|
⑧①①⑨ |⑧-⑨-|
16
③③②② |①-②-|
④⑦⑤⑥ |③-④⑤|
⑦④⑥⑤ |-⑥⑦-|
⑧①①⑨ |⑧-⑨-|
17
口口口① |①-②③|
③口口口 |--④-|
口②口口
口④口口

口⑤口口
⑨口口⑦
⑧口⑥口 |⑤-⑥⑦|
口口口口 |--⑧⑨|
18
①⑥⑤④ |①-②③|
口口③⑨ |--④⑤|
⑧口口② |⑥-⑦-|
口口口⑦ |⑧-⑨-|
19
③③②② |①-②-|
④⑦⑤⑥ |③-④⑤|
⑦④⑥⑤ |-⑥⑦-|
⑧①①⑨ |⑧-⑨-|
20
③③②② |①-②-|
④口⑤口 |③-④⑤|
口④口⑤
口①①口

口口⑨⑨
口⑦口⑥
⑦口⑥口 |-⑥⑦-|
⑧⑧口口 |⑧-⑨-|
21
③③口口 |--①-|
口口⑥口 |②--③|
口⑤②口 |--④-|
④口①口 |⑤-⑥-|
22
口口①① |①---|
②③口④ |--②-|
口口口口 |③---|
口口④口 |④---|
23
口口口口 |①--②|
③口口⑥ |--③-|
口②⑤口 |④--⑤|
①口口④ |--⑥-|
24
口④③② |①---|
口①①口 |--②③|
口口口口 |④---|
⑤口口口 |--⑤-|
25
①⑤⑥② |①--②|
④①口④ |--③-|
⑤③口⑥ |④-⑤-|
口口口⑦ |⑥-⑦-|
26
口口口① |①--②|
口②①口 |--③-|
口口口口
口口③口

⑤口口⑥
④口口④
口⑤⑥口 |④-⑤-|
⑦口口口 |⑥-⑦-|
27
口①②③ |①---|
口口①② |②---|
口口口① |③---|
口④口口 |--④-|
28
口口口口 |①---|
①口②口 |②---|
①①口口
①口②口

口口口口
口③口③
口④③口 |③---|
口④口口 |④---|
29
②口①口 |①②-③|
④口③口 |④-⑤⑥|
⑥口⑤口
口口口口

口⑪⑪⑦
口口口⑧
口口口⑨ |⑦⑧⑨⑩|
⑫⑬口⑩ |⑪-⑫⑬|
30
③口口口 |①-②-|
口口口口 |③-④-|
口②④口
口口①口

口⑥⑦⑤
口⑥⑦口
口口口口 |⑤-⑥⑦|
口口⑨⑧ |--⑧⑨|
31
⑤⑦⑥③ |①-②-|
口⑦⑥口 |③-④-|
口④②口 |⑤-⑥⑦|
⑧①口口 |--⑧-|
32
口⑧口口 |①-②-|
①④⑤② |③-④⑤|
⑦④⑤口 |--⑥-|
口⑥口③ |⑦-⑧-|
33
口口②口 |①---|
口口口② |②---|
口口口①
口口①口

口④口⑤
③口口口
口④口⑤ |③-④-|
⑥⑦口口 |⑤-⑥⑦|
34
③口口口 |①-②-|
口口口口 |③-④-|
②口口口
口口①④

口⑧⑦口
口⑥⑦⑤
⑧口⑦口 |⑤-⑥⑦|
口口口口 |--⑧-|
35
口口口② |--①-|
口口口口 |②-③-|
口口口①
③口口口

口⑥口口
④⑥⑤口
口⑥口⑧ |④-⑤⑥|
口口口⑦ |--⑦⑧|
36
口口口⑤ |①-②③|
③口⑥① |--④-|
②⑦口口 |⑤-⑥-|
⑧④④口 |⑦-⑧-|
37
④口④口 |①---|
①③口③ |②---|
②⑥②① |③---|
口口⑤口 |④-⑤⑥|
38
口口口口 |①-②③|
③口①口 |--④-|
②口口口
④口口口

⑥口⑤口
口⑥口⑤
⑧口⑦口 |⑤-⑥-|
口⑧口⑦ |⑦-⑧-|
39
口①口口 |①---|
口口①口 |----|
口①口口
口口①口

②口口②
口口口口
口②②口 |----|
口口口口 |②---|
40
口口口口 |①-②-|
口④⑤① |③-④⑤|
口口口③
②口口①

口口口口
⑦口口⑧
口口口口 |--⑥-|
口⑥口口 |⑦-⑧-|
41
②④②④ |①-②-|
⑨⑧⑦⑥ |③-④-|
③①③① |⑤---|
口⑤⑤口 |⑥⑦⑧⑨|
42
③⑥①⑦ |①-②-|
口口口⑤ |③-④-|
④⑥②⑦ |⑤-⑥-|
⑧口口口 |⑦-⑧-|
43
口口①口 |①-②-|
口②口口 |③-④-|
口口③口
口④口口

口口口⑥
⑦⑧⑨⑩
⑤口口⑥ |⑤-⑥-|
口口口口 |⑦⑧⑨⑩|
44
口①③口 |①-②-|
口⑦口⑧ |③-④⑤|
口②口口 |--⑥-|
⑥④⑤口 |⑦-⑧-|
45
②④②④ |①-②-|
⑨⑧⑦⑥ |③-④-|
③①③① |⑤---|
口⑤⑤口 |⑥⑦⑧⑨|
46
③⑥①⑦ |①-②-|
口口口⑤ |③-④-|
④⑥②⑦ |⑤-⑥-|
⑧口口口 |⑦-⑧-|
47
口⑥③⑦ |①-②-|
②④⑤③ |③-④⑤|
口⑥①⑦ |--⑥-|
⑧②口① |⑦-⑧-|
48
③口②口 |①-②-|
口⑦⑤口 |③-④⑤|
口④⑥口 |-⑥⑦-|
⑧①口⑨ |⑧-⑨-|
49
③③②② |①-②-|
④口⑤口 |③-④⑤|
口④⑥⑤ |----|
口①①口 |--⑥-|
50
①①①① |①---|
口④④④ |----|
③③③口 |②--③|
口②②② |--④-|
51
①①①① |①---|
口③口⑤ |----|
②口④口 |②-③-|
口口口口 |④-⑤-|
52
③③②② |①-②-|
④⑦⑤⑥ |③-④⑤|
⑦④⑥⑤ |-⑥⑦-|
⑧①①⑨ |⑧-⑨-|
53
③③②② |①-②-|
④⑦⑤⑥ |③-④⑤|
⑦④⑥⑤ |-⑥⑦-|
⑧①①⑨ |⑧-⑨-|
54
①④③口 |①-②③|
口口②口 |--④-|
口⑥口⑤ |⑤-⑥⑦|
口⑦⑧口 |--⑧-|
55
①口口③ |①-②③|
口口④② |--④-|
口口口口
口口口口

口口口口
口口口⑧
⑦⑤口口 |⑤-⑥-|
口口口⑥ |⑦-⑧-|
56
③③②② |①-②-|
④⑦⑤⑥ |③-④⑤|
⑦④⑥⑤ |-⑥⑦-|
⑧①①⑨ |⑧-⑨-|
57
③③②② |①-②-|
④口⑤口 |③-④⑤|
口④口⑤
口①①口

口口⑨⑨
口⑦口⑥
⑦口⑥口 |-⑥⑦-|
⑧⑧口口 |⑧-⑨-|
58
③口口口 |--①-|
③口⑥口 |②--③|
口⑤②① |--④-|
④口口口 |⑤-⑥-|
59
口②口① |①---|
口③口① |--②-|
口口口④ |③---|
口④口口 |④---|
60
口口口口 |①--②|
⑥口口③ |--③-|
口⑤②口 |④--⑤|
④口口① |--⑥-|
61
口①①② |①---|
口口口③ |--②③|
⑤口口④ |④---|
口⑤口口 |--⑤-|
62
①④④② |①--②|
⑥①口⑤ |--③-|
口③口⑦ |④-⑤-|
⑥口⑦⑤ |⑥-⑦-|
63
②④④① |①--②|
⑥口①⑤ |--③-|
口口③口 |④-⑤-|
⑥口⑦⑤ |⑥-⑦-|
64
口口口口 |①---|
口口②口 |②---|
①②口口
口①口口

口③口③
口④口口
口口口③ |③---|
口④口口 |--④-|
65
口口口口 |①---|
①口②口 |②---|
①①口口
①口②口

口③③③
口④口④
口④③口 |③---|
口④口④ |④---|
66
④⑧⑧⑤ |①②③④|
⑦口③⑦ |-⑤-⑥|
②⑥口口 |⑦---|
⑨⑩①口 |⑧-⑨⑩|
67
③口口口 |①-②-|
口口口口 |③-④-|
②口口④
口口①口

口口口⑤
口⑥⑦口
口⑥⑦口 |⑤-⑥⑦|
口口⑨⑧ |--⑧⑨|
68
⑤口口③ |①-②-|
口⑦⑥口 |③-④-|
④⑦⑥② |⑤-⑥⑦|
口①⑨⑧ |--⑧⑨|
69
口口口口 |①-②-|
②④⑤③ |③-④⑤|
口④⑤口
口①口口

口口口口
⑧口口口
⑦口口⑥ |--⑥-|
口⑦⑥口 |⑦-⑧-|
70
口①①② |①---|
口口口② |②---|
口口口口
口口口口

⑥⑦口口
口④⑤口
口口③口 |③-④-|
④口③⑤ |⑤-⑥⑦|
71
口口①口 |①-②-|
③口口口 |③-④-|
口口口口
口②④口

口⑧⑧⑤
口⑥⑦口
口⑥⑦口 |⑤-⑥⑦|
口口口口 |--⑧-|
72
口口口口 |--①-|
③口口① |②-③-|
③口口①
口②②口

⑤口口⑤
口④④口
口⑤⑤口 |④--⑤|
⑥⑦口口 |--⑥⑦|
73
口口⑤口 |①-②③|
②⑥口③ |--④-|
④口⑦口 |⑤-⑥-|
口⑧①口 |⑦-⑧-|
74
①④口④ |①---|
③口③口 |②---|
口②⑥② |③---|
口⑤口① |④-⑤⑥|
75
口口口口 |①-②③|
口①口③ |--④-|
口口口②
口口口④

口⑤口⑥
⑤口⑥口
口⑦口⑧ |⑤-⑥-|
⑦口⑧口 |⑦-⑧-|
76
①⑨⑤口 |①-②-|
④⑥口⑨ |③④-⑤|
③⑨⑦口 |⑥⑦⑧-|
口⑧口② |⑨---|

accuracy: 100%
最終更新:2023年07月21日 22:51