アットウィキロゴ
Say!ファンファーレ!
白上フブキ

BASIC

Level: 2
BPM: 170
Notes: 182

1
口口口口 |----|
口口口口 |----|
口口口口 |----|
口口口口 |----|
2
口口口口 |①---|
口①①口 |----|
口口口口 |----|
口口口口 |----|
3
口口口口 |----|
口口口口 |----|
口口口口 |----|
口口口口 |----|
4
口口口口 |①---|
口①①口 |----|
口口口口 |----|
口口口口 |----|
5
①口口① |----|
口口口口 |----|
口口口口 |----|
口口口口 |①---|
6
口口口口 |①---|
口口口口 |----|
①②口口 |②---|
口口口口 |----|
7
口口口口 |①---|
口口口口 |----|
口口①② |②---|
口口口口 |----|
8
口口口口 |①---|
口①②口 |----|
口口口口 |②---|
口口口口 |----|
9
②①口② |①---|
口口口口 |----|
口口口口 |----|
口口口口 |②---|
10
口口口口 |①---|
口口口口 |----|
口口②① |②---|
口口口口 |----|
11
口口口口 |①---|
口口口口 |----|
②①口口 |②---|
口口口口 |----|
12
口口口口 |①---|
口口口口 |②---|
口③④口 |③---|
口①②口 |④---|
13
口口口口 |----|
口口口口 |----|
口口口口 |----|
口口口口 |----|
14
口口口口 |①---|
口口口① |----|
口口②口 |②---|
口口口口 |----|
15
口口口口 |①---|
口①口口 |----|
②口口口 |②---|
口口口口 |----|
16
口口口口 |①---|
①口口口 |----|
口②口口 |②---|
口口口口 |----|
17
口口口口 |①---|
口口①口 |----|
口口口② |②---|
口口口口 |----|
18
口口口口 |①---|
口口口口 |----|
口口②口 |②---|
口口①口 |----|
19
口口②口 |①---|
口口①口 |----|
口口口口 |②---|
口口口口 |----|
20
口口口口 |①---|
口口口口 |----|
口②口口 |②---|
口①口口 |----|
21
口②口口 |①---|
口①口口 |----|
口口口口 |②---|
口口口口 |----|
22
口口口口 |①---|
口口①① |----|
口口口口 |----|
口口口口 |----|
23
口口口口 |①---|
①①口口 |----|
口口口口 |----|
口口口口 |----|
24
口口口口 |①---|
口口口口 |----|
口口①① |----|
口口口口 |----|
25
口口口口 |①---|
口口口口 |----|
①①口口 |----|
口口口口 |----|
26
口口口口 |----|
口口口口 |----|
口口口口
口口口口
27
口口口口 |①---|
口口口口 |----|
口②口口 |②---|
口口①口 |----|
28
口②口口 |①---|
口口①口 |----|
口口口口 |②---|
口口口口 |----|
29
口口口口 |①---|
①口口① |----|
口口口口 |----|
口口口口 |----|
30
口口口口 |①---|
口口口口 |----|
①口口① |----|
口口口口 |----|
31
口口口口 |①---|
口口口口 |----|
口口口口 |----|
口口①口 |----|
32
口口口口 |①---|
口口口口 |----|
口口口口 |----|
口①口口 |----|
33
口口口口 |①---|
口口口口 |----|
口口②① |②---|
口口口口 |----|
34
口口口口 |①---|
口口口口 |----|
②①口口 |②---|
口口口口 |----|
35
口①①口 |----|
口口口口 |①---|
口口口口 |----|
口口口口 |----|
36
口口口口 |①---|
②口口① |----|
口口口口 |②---|
口口口口 |----|
37
口口口口 |①---|
口④③口 |②---|
口②①口 |③---|
口口口口 |④---|
38
口口①口 |①---|
口口口口 |----|
口②口口 |②---|
口口口口 |----|
39
口口口口 |①---|
①口口① |----|
口口口口 |----|
口口口口 |----|
40
口口口口 |①---|
口①①口 |----|
口口口口 |②---|
口②②口 |----|
41
口口口口 |①---|
口口口口 |②---|
口③②① |③---|
口口口口 |----|
42
口口口口 |①---|
②口口① |----|
口口口口 |②---|
口口口口 |----|
43
④③②① |①---|
口口口口 |②---|
口口口口 |③---|
口口口口 |④---|
44
口口口口 |①---|
口①①口 |----|
口口口口 |----|
口口口口 |----|
45
口口口口 |①---|
口口口口 |----|
口①①口 |----|
口口口口 |----|
46
①口口① |①---|
②口口② |----|
口口口口 |②---|
口口口口 |----|
47
口口口口 |①---|
口口口口 |②---|
①口口① |③---|
口④③② |④---|
48
口口口口 |①---|
①口口① |----|
口口口口 |②---|
②口口② |----|
49
口口口口 |①---|
口口口口 |②---|
口③②① |③---|
口口口口 |----|
50
口②②口 |①---|
口口口口 |----|
口口口口 |②---|
口①①口 |----|
51
口口口口 |①---|
①②③④ |②---|
口口口口 |③---|
口口口口 |④---|
52
口①①口 |----|
口口口口 |①---|
口口口口 |----|
口口口口 |----|
53
口口口口 |①---|
口口口口 |----|
②口口① |②---|
口口口口 |----|
54
口②②口 |①---|
口①①口 |----|
口口口口 |②---|
口口口口 |----|
55
口口口口 |①---|
④口②口 |②---|
口③口① |③---|
口口口口 |④---|
56
②①②① |----|
口口口口 |①---|
口口口口 |----|
口口口口 |②---|
57
口口口口 |①---|
口①①口 |②---|
口②②口 |③---|
口③③口 |----|
58
口口口口 |①---|
口口口口 |----|
口口②① |②---|
口口口口 |----|
59
口口口口 |①---|
口口口口 |----|
②①口口 |②---|
口口口口 |----|
60
口口口口 |①---|
口②①口 |----|
口口口口 |②---|
口口口口 |----|
61
②口①② |①---|
口口口口 |----|
口口口口 |----|
口口口口 |②---|
62
口口口口 |①---|
①②口口 |----|
口口口口 |②---|
口口口口 |----|
63
③口口③ |①---|
口口①② |----|
口口口口 |②---|
口口口口 |③---|
64
口口口口 |①---|
口口口口 |----|
①②口口 |②---|
口口口口 |----|
65
口口口口 |①---|
④③②① |②---|
口口口口 |③---|
口口口口 |④---|
66
①口口① |----|
口口口口 |①---|
口口口口 |----|
口口口口 |----|
67
口口口口 |①---|
口口口口 |----|
口②①口 |②---|
口口口口 |----|
68
④口口② |①---|
口③①口 |②---|
口口口口 |③---|
口口口口 |④---|
69
口②②口 |①---|
口口口口 |----|
口口①口 |----|
口口口口 |②---|
70
④口口② |①---|
口③①口 |②---|
口口口口 |③---|
口口口口 |④---|
71
口④②口 |①---|
③口口① |②---|
口口口口 |③---|
口口口口 |④---|
72
口口④口 |①---|
口口③口 |②---|
口口②口 |③---|
口口①口 |④---|
73
口口口口 |----|
口口口口 |----|
口口口口 |----|
口口口口 |----|
74
①口口① |----|
口口口口 |①---|
口口口口 |----|
口口口口 |----|

accuracy: 100%
最終更新:2023年07月22日 18:49