アットウィキロゴ
Say!ファンファーレ!
白上フブキ

ADVANCED

Level: 5
BPM: 170
Notes: 376

1
口口口口 |----|
口口口口 |----|
口口口口 |----|
口口口口 |----|
2
口口口口 |①-②-|
口口口口 |③-④-|
④③②① |----|
口口口口 |----|
3
口口口口 |----|
口口口口 |----|
口口口口 |----|
口口口口 |----|
4
口口⑤口 |①-②-|
①②③④ |③-④-|
口口口口 |----|
口口口口 |--⑤-|
5
④口口④ |--①-|
口口口① |②---|
口口口② |③---|
口③③口 |④---|
6
口②②口 |①---|
③④⑤口 |②---|
①口口口 |--③-|
口口口口 |④-⑤-|
7
②③口② |①---|
口④口① |----|
口口口口 |②---|
口口口口 |--③④|
8
③口口② |①---|
口口口口 |②---|
口①口口 |----|
口口口口 |③---|
9
口口口口 |①---|
口②口口 |--②-|
口①①口
口口口口

口口③口
④口口③
口④口口 |--③-|
口口口口 |④---|
10
②口口② |①---|
③④⑤口 |②---|
口口①口 |--③-|
口口口口 |④-⑤-|
11
口②③口 |----|
口口口口 |①---|
③口①② |②---|
口口口口 |③---|
12
④口口④ |①---|
口②②口 |②---|
口③③口 |③---|
①口口① |④---|
13
口口口口 |----|
口口口口 |----|
口口口口 |----|
口口口口 |----|
14
④口口口 |①---|
③口口口 |②---|
②口口口 |③---|
①口口口 |④---|
15
口口口① |①---|
口口口② |②---|
口口口③ |③---|
口口口④ |④---|
16
③口口③ |----|
口①①口 |①---|
口口口口 |②---|
口②②口 |③---|
17
口口口口 |①---|
口口口口 |②---|
①②③④ |③---|
口口口口 |④---|
18
口口口口 |①---|
④口口② |②---|
口口口口 |③---|
③口口① |④---|
19
口④②口 |①---|
口口口口 |②---|
口③①口 |③---|
口口口口 |④---|
20
①口口① |①---|
口②②口 |②---|
③口口③ |③---|
口④④口 |④---|
21
口②①口 |①-②-|
口④③口 |③-④-|
口口⑤口 |⑤---|
口口口口 |----|
22
口口口口 |①---|
②②口口 |----|
口口口口 |②---|
①①口口 |----|
23
口口口口 |①---|
口口口口 |②---|
④③②① |③---|
口口口口 |④---|
24
口口口口 |①---|
口口②② |----|
口口口口 |②---|
口口①① |----|
25
口口口口 |①---|
口口口口 |②---|
①②③④ |③---|
口口口口 |④---|
26
口口口口 |----|
口口口口 |----|
口口口口
口口口口
27
口口口口 |①---|
④口口② |②---|
口口口口 |③---|
口③①口 |④---|
28
口口口口 |①---|
口口口口 |②---|
④③②① |③---|
口口口口 |④---|
29
①口口① |①---|
口②③口 |--②-|
口④⑤口 |③---|
口口口口 |④-⑤-|
30
口口口口 |----|
口口口口 |----|
口口口口 |----|
口口口口 |----|
31
口口口口 |①---|
①①口口 |--②-|
口口口口 |③---|
口③②口 |----|
32
口口口口 |①---|
④⑤①① |--②-|
口口口口 |③---|
口②③口 |④-⑤-|
33
口口口④ |①---|
口口①口 |②---|
②口口口 |③---|
口③口口 |④---|
34
口①①口 |①---|
③口④④ |②-③-|
②口口口 |--④-|
口口⑤⑤ |--⑤-|
35
①口口① |----|
口口口口 |①---|
②③④口 |--②-|
口口口口 |③-④-|
36
口②③口 |①---|
⑤口口口 |②-③-|
口④④① |--④-|
口口口口 |--⑤-|
37
口口口① |①---|
口②②口 |②---|
③口口③ |③---|
口④④口 |④---|
38
口⑥口口 |①---|
①④⑤① |--②-|
口②③口 |③-④-|
口口口口 |⑤-⑥-|
39
口口口口 |----|
口口口口 |----|
口口口口 |----|
口口口口 |----|
40
①口口① |①---|
口口②口 |----|
口③口口 |②-③-|
口④④口 |--④-|
41
口⑤口口 |--①-|
①②③④ |②-③-|
口口口⑥ |④---|
口口口口 |⑤-⑥-|
42
口④④口 |----|
③口口② |①---|
口①①口 |②-③-|
口口口口 |--④-|
43
口口口口 |--①-|
口口口口 |②-③-|
④③②① |④---|
口口口口 |----|
44
①口口① |①---|
②③④⑤ |----|
口口口口 |②-③-|
口口口口 |④-⑤-|
45
口口口口 |--①-|
口③④口 |②-③-|
口⑤②口 |--④-|
口①⑥口 |⑤-⑥-|
46
口⑤⑤口 |----|
③口口④ |①-②-|
①口口② |③-④-|
口口口口 |--⑤-|
47
③口口② |----|
口①口口 |①---|
口口①口 |②---|
②口口③ |③---|
48
口①①口 |①---|
口口②口 |----|
口④④口 |②-③-|
口③口口 |--④-|
49
口口⑤口 |--①-|
口②③口 |②-③-|
①口口④ |④---|
口⑥口口 |⑤-⑥-|
50
口⑤⑤口 |----|
④口②口 |①-②-|
口③口① |③-④-|
口口口口 |--⑤-|
51
口口⑤口 |--①-|
口②③口 |②-③-|
①⑥口④ |④---|
口口口口 |⑤-⑥-|
52
③口口③ |----|
②口口② |----|
①口口① |①--②|
口口口口 |--③-|
53
口口①口 |--①-|
口②口口 |②-③-|
⑤口③⑥ |④---|
口④口口 |⑤-⑥-|
54
口①②口 |----|
口③④口 |①-②-|
口⑤⑥口 |③-④-|
口口口口 |⑤-⑥-|
55
①口口② |--①-|
口口口口 |②---|
口口口③ |----|
口口口口 |--③-|
56
⑤口口② |①-②-|
④口口① |--③-|
③口⑥口 |④-⑤-|
口口口口 |--⑥-|
57
④口口④ |①---|
②口口② |②---|
口①口口 |③---|
③口口③ |④---|
58
口①①口 |----|
②③④口 |①---|
口口口口 |--②-|
口口口口 |③-④-|
59
②③口② |①---|
口④口① |----|
口口口口 |②---|
口口口口 |--③④|
60
③口口② |①---|
口口口口 |②---|
口①口口 |----|
口口口口 |③---|
61
口口口口 |①---|
口②口口 |--②-|
口①①口
口口口口

口口③口
④口口③
口④口口 |--③-|
口口口口 |④---|
62
②口口② |①---|
③④⑤口 |②---|
口口①口 |--③-|
口口口口 |④-⑤-|
63
口口②口 |----|
③口口② |①---|
口③①口 |--②-|
口口口口 |③---|
64
④②④② |①---|
口口口口 |②---|
口口口口 |③---|
口③①口 |④---|
65
口口口口 |①-②-|
④⑧⑥② |③-④-|
③⑦⑤① |⑤-⑥-|
口口口口 |⑦-⑧-|
66
①②②① |----|
口口口口 |①---|
口口口口 |----|
口口口口 |--②-|
67
口⑤口口 |--①-|
口⑥口口 |②-③-|
④口口① |④---|
口③②口 |--⑤⑥|
68
②④②④ |①---|
口口口口 |②---|
口①③口 |③---|
口口口口 |④---|
69
口口⑤口 |①-②-|
⑥③②⑤ |③-④-|
④⑥口① |--⑤-|
口口口口 |⑥---|
70
口口口口 |①-②-|
口口口口 |③-④-|
⑧⑦⑥⑤ |⑤-⑥-|
④③②① |⑦-⑧-|
71
⑤口口⑤ |①-②-|
④③②① |③-④-|
口口口口 |--⑤-|
口口口口 |----|
72
口④④口 |①---|
口③③口 |②---|
口②②口 |③---|
口①①口 |④---|
73
口口口口 |①-②-|
⑤⑥⑦⑧ |③-④-|
①②③④ |⑤-⑥-|
口口口口 |⑦-⑧-|
74
①口口① |----|
口口口口 |①---|
口口口口 |----|
口口口口 |----|

accuracy: 100%
最終更新:2023年07月22日 19:04