アットウィキロゴ
Say!ファンファーレ!
白上フブキ

EXTREME

Level: 9.3
BPM: 170
Notes: 777

1
口口口口 |----|
口口口口 |----|
口口口口 |----|
口口口口 |----|
2
④④④口 |①-②-|
③③③口 |③-④-|
②②②口 |----|
①①①⑤ |--⑤-|
3
⑥口口口 |①-②-|
③③口② |--③-|
⑤口①口 |--④-|
口口④口 |⑤-⑥-|
4
口①①① |①-②-|
口②②② |③-④-|
口③③③
口④④④

口⑦⑦口
⑥口口口
口口口口 |--⑤-|
⑤口口口 |⑥-⑦-|
5
①④口口 |--①-|
口③②④ |②---|
④②③口 |③---|
口口④① |④---|
6
②口⑥② |①---|
③⑤口口 |②---|
口②②口 |③-④-|
①口口④ |⑤-⑥-|
7
口③口③ |①---|
口口⑥⑤ |②---|
②口口口 |③---|
④①①口 |④-⑤⑥|
8
②④②④ |①---|
口①口口 |②---|
②④②④ |③---|
口③③③ |④---|
9
口⑥口⑥ |①-②-|
⑤②⑤④ |③-④-|
口口⑥口 |--⑤-|
①⑤③口 |⑥---|
10
②口②口 |①---|
⑥②口② |②---|
⑤①口口 |③-④-|
④口①③ |⑤-⑥-|
11
③②口④ |①---|
口④③口 |②---|
口③④① |③---|
④①口③ |④---|
12
④④④④ |①---|
②④④② |②---|
②口口② |③---|
③①①③ |④---|
13
⑦⑦⑧⑧ |①-②③|
②⑦⑧⑤ |④-⑤-|
口③口口 |⑥-⑦-|
④①①⑥ |⑧---|
14
口口口口 |①---|
②口口口 |②---|
②⑥④口 |③-④-|
⑤口①③ |⑤-⑥-|
15
⑥⑥口⑤ |①-②-|
④口口③ |③-④-|
⑦⑦口⑤ |⑤---|
口②①口 |⑥-⑦-|
16
口④④口 |①---|
③④④③ |②---|
口④④口 |③---|
⑤②②① |④-⑤-|
17
④口口⑤ |①-②-|
⑥口口口 |③-④-|
①口口③ |⑤---|
口⑦口② |⑥-⑦-|
18
②⑤⑤⑤ |①---|
⑥口②② |②---|
口④口口 |③-④-|
①口③① |⑤-⑥-|
19
④口⑥⑥ |①-②-|
口③③③ |③-④-|
②口口口 |⑤---|
口⑦⑤① |⑥-⑦-|
20
口①③口 |①---|
①④②③ |②---|
①④②③ |③---|
①口⑤③ |④-⑤-|
21
⑥⑥⑦⑦ |①-②-|
⑤口④口 |③-④-|
③口②口 |⑤-⑥-|
①口口口 |⑦---|
22
口⑦口口 |①---②-|
⑥口口⑧ |③---④-|
③①①⑤ |⑤---⑥-|
口②④口 |⑦---⑧-|
23
③口①⑦ |①---|
口口口⑥ |②---③-|
口②口⑤ |④-⑤-⑥-|
口口口④ |⑦---|
24
口①①口 |①---②-|
⑥②⑦口 |----③-|
口⑤口④ |④---⑤-|
②口③口 |⑥---⑦-|
25
口②②① |①---|
口口⑤口 |②---③-|
③口口⑥ |④---⑤-|
口④口口 |⑥---|
26
①口口口 |①-②-③-|
②口口口 |④-⑤-⑥-|
③口口口
④⑤⑥口
27
⑤⑦④② |①-②-|
⑥⑥③③ |③-④-|
⑦⑤②④ |--⑤-|
口口口① |⑥-⑦-|
28
⑥⑤②① |--①-|
⑦④③口 |②-③-|
口③④⑦ |④-⑤-|
①②⑤⑥ |⑥-⑦-|
29
口②口② |①---|
④口④① |--②-|
①③③口 |③---|
口⑤⑤口 |④-⑤-|
30
④②③⑤ |--①-|
口口口口 |--②-|
②④⑤③ |③-④-|
①⑥口① |⑤-⑥-|
31
口口口口 |①---|
①①②口 |②-③-|
⑤口⑥口 |④---|
③口口④ |⑤-⑥-|
32
口②①① |①---|
口口口口 |②-③-|
④口⑥③ |④---|
口⑤口口 |⑤-⑥-|
33
口①口④ |①---|
①③口口 |②---|
口口④② |③---|
③口②口 |④---|
34
③①口口 |①---|
口口②① |②-③-|
①②口口
口口①③

口⑤④口
④口口⑤
⑤口口④ |--④-|
口④⑤口 |--⑤-|
35
①口口① |----|
③③口口 |①---|
口①①口 |--②-|
②口口④ |③-④-|
36
③口口③ |①---|
口④①① |②-③-|
口口④口 |--④-|
口②②⑤ |--⑤-|
37
④①④② |①---|
②③①③ |②---|
③①③② |③---|
②④①④ |④---|
38
口⑥口④ |①---|
③⑤①口 |--②-|
口①口口 |③-④-|
②口口口 |⑤-⑥-|
39
⑧口口⑨ |①-②-③-|
④口口① |④-⑤-⑥-|
⑧⑤②⑨ |⑦-⑧-|
⑥口⑦③ |⑨---|
40
口口①口 |①---|
②①口② |②---|
口口①口
口①口口

口口口③
口口③口
口④口口 |③-④-|
④⑤⑤口 |--⑤-|
41
②④④④ |--①-|
口口⑤口 |②-③-|
①⑥口③ |④---|
口口口口 |⑤-⑥-|
42
⑥⑥口口 |①---|
⑤口口③ |②-③-|
口口口口 |④-⑤-|
①④②① |--⑥-|
43
⑧⑥②④ |①-②-|
口口②④ |③-④-|
⑤③口口 |⑤-⑥-|
⑤③①⑦ |⑦-⑧-|
44
⑥⑥①口 |①---|
②①①② |②---|
⑤①①④ |③-④-|
口口③口 |⑤-⑥-|
45
口口③③ |--①-|
②口口口 |②-③-|
口口口口
口①口口

口口口口
口口口④
口口⑤口 |--④-|
⑥⑥口口 |⑤-⑥-|
46
口②③口 |①---|
口口口口 |②-③-|
②口口③
口口①口

④口口⑤
口④⑤口
口口口口 |④-⑤-|
口⑥⑥口 |--⑥-|
47
⑦口口⑥ |--①-|
④口⑤② |②-③-|
口③①⑥ |④-⑤-|
④口口② |⑥-⑦-|
48
口①①口 |①---|
②①口② |②---|
口口①口
口①①口

口口口③
口口③口
口④口口 |③-④-|
④⑤⑤口 |--⑤-|
49
②④④④ |--①-|
口⑥⑤口 |②-③-|
①⑤⑥③ |④---|
口口口口 |⑤-⑥-|
50
⑥⑥口口 |①---|
⑤口口③ |②-③-|
口口口口 |④-⑤-|
①④②① |--⑥-|
51
⑧⑥②④ |①-②-|
⑧口②④ |③-④-|
⑤③口⑦ |⑤-⑥-|
⑤③①⑦ |⑦-⑧-|
52
口口口② |①---|
口口口口 |②---|
口口口口
②①①口

⑤⑤口口
④④③③
③③④④ |③--④|
口口⑤⑤ |--⑤-|
53
口口口① |--①-|
口口②口 |②-③-|
口③口口
口口口口

口口口⑥
④④口⑥
⑤口口口 |④---|
⑤口口口 |⑤-⑥-|
54
⑧③口口 |①-②-|
口口口口 |③-④-|
⑥⑥④② |⑤-⑥-|
⑤⑤⑦① |⑦-⑧-|
55
⑩⑥⑤⑨ |①-②-|
④口口② |③-④-|
⑧口口⑦ |⑤⑥⑦⑧|
③⑫⑪① |⑨⑩⑪⑫|
56
口④口口 |①-②-|
②口①③ |③-④-|
口②③口
②口口③

⑥口⑤⑦
口⑥⑦口
⑥口口⑦ |⑤-⑥-|
口口⑧口 |⑦-⑧-|
57
口口口口 |①---|
①口口① |②---|
口口口口
②口口②

口③③口
④③口④
④③③④ |③---|
口③口口 |④---|
58
②口⑥② |①---|
③⑤口口 |②---|
口②②口 |③-④-|
①口口④ |⑤-⑥-|
59
口③口③ |①---|
口口⑥⑤ |②---|
②口口口 |③---|
④①①口 |④-⑤⑥|
60
②④②④ |①---|
口①口口 |②---|
②④②④ |③---|
口③③③ |④---|
61
口⑥口⑥ |①-②-|
⑤②⑤④ |③-④-|
口口⑥口 |--⑤-|
①⑤③口 |⑥---|
62
②口②口 |①---|
⑥②口② |②---|
⑤①口口 |③-④-|
④口①③ |⑤-⑥-|
63
④②④② |①---|
口③口③ |②---|
口④口① |--③-|
口①③口 |④---|
64
口④口② |①---|
②口④③ |②---|
③④①② |③---|
②①④口 |④---|
65
④⑧⑥② |①-②-|
口口口口 |③-④-|
③⑦⑤① |⑤-⑥-|
③⑦⑤① |⑦-⑧-|
66
②⑥⑥② |①---|
⑤②②口 |②---|
④口口口 |③-④-|
③口口① |⑤-⑥-|
67
④口口④ |--①-|
⑤②①③ |②-③-|
口口③① |④---|
⑤②⑦⑥ |⑤-⑥⑦|
68
②④②④ |①---|
口②④口 |②---|
②④②④ |③---|
③①口口 |④---|
69
①⑥③⑥ |①-②-|
⑤②⑤④ |③-④-|
口口⑥口 |--⑤-|
口⑤口口 |⑥---|
70
③⑦③⑦ |①-②-|
口口口④ |③-④-|
⑦③⑥② |⑤-⑥-|
①⑤口⑧ |⑦-⑧-|
71
口口口口 |①-②-|
③口③口 |③-④-|
口口口④
①③②口

口口口口
口⑦口⑦
口⑤⑧口 |⑤-⑥-|
⑦口口⑥ |⑦-⑧-|
72
③⑦⑧④ |①②③④|
⑮⑪⑫⑯ |⑤⑥⑦⑧|
⑤⑬⑭⑥ |⑨⑩⑪⑫|
⑨①②⑩ |⑬⑭⑮⑯|
73
口④③② |①-②③|
口口口口 |④-⑤-|
口口口口
口①⑤口

⑧口口⑨
口⑥⑦口
⑧口口⑨ |⑥-⑦-|
⑥口口⑦ |⑧-⑨-|
74
口①①口 |----|
口①口口 |①---|
口口①口 |----|
口①①口 |----|

accuracy: 100%
最終更新:2023年07月22日 19:22