アットウィキロゴ
BPM:150
1
②⑧□□ |①-②-|
①□③□ |③④⑤-|
□④□⑦ |⑥--⑦|
⑥□⑤□ |--⑧-|
2
□□⑥② |①-②-|
□③□① |③④⑤-|
⑦□④□ |⑥--⑦|
□⑤□⑧ |--⑧-|
3
②⑧□□ |①-②-|
①□③□ |③④⑤-|
□④□⑦ |⑥--⑦|
⑥□⑤□ |--⑧-|
4
□⑧□② |①-②-|
□⑦□① |③-④-|
④□⑥□ |⑤-⑥-|
③□⑤□ |⑦-⑧-|
5
②⑦⑦② |①-②-|
①□③① |③④⑤-|
⑧④□⑧ |⑥--⑦|
⑥□⑤⑥ |--⑧-|
6
②⑥⑥② |①-②-|
①③□① |③④⑤-|
⑦□④⑦ |⑥--⑦|
⑧⑤□⑧ |--⑧-|
7
②□□② |①-②-|
①□③① |③④⑤-|
□④□□ |⑥--⑦|
□□⑤□ |--⑧-|

⑧⑦⑦⑧
□□□□
⑥□□⑥
□□□□
8
□③③□ |①---|
□②②□ |②---|
□①①□ |③---|
④□□□ |④---|
9
③□⑥□ |①-②-|
⑦⑤□□ |③-④⑤|
□②④□ |⑥--⑦|
□⑧□① |--⑧-|
10
⑤④□③ |①--②|
□□□① |--③-|
□□□□ |--④-|
□□②□ |⑤---|
11
⑦□⑥□ |①-②-|
③⑤②□ |③-④⑤|
□□④⑧ |⑥--⑦|
□□□① |--⑧-|
12
□□□① |①--②|
④④⑤⑤ |--③-|
②□□□ |--④-|
□□③□ |⑤---|
13
□⑥□③ |①-②-|
□□⑤⑦ |③-④⑤|
□④②□ |⑥--⑦|
①□⑧□ |--⑧-|
14
③□④⑤ |①--②|
①□□□ |--③-|
□□□□ |--④-|
□②□□ |⑤---|
15
⑦③④⑧ |①-②-|
⑤①②⑥ |③-④-|
③⑦⑧④ |⑤-⑥-|
①⑤⑥② |⑦-⑧-|
16
□①②□ |①②-③|
⑦③④⑧ |④-⑤⑥|
⑦□□⑧ |--⑦-|
□⑤⑥□ |⑧---|
17
□①□⑧ |--①-|
□⑦⑦□ |②-③④|
③④⑤⑥ |⑤⑥-⑦|
□□②□ |--⑧-|
18
①□□□ |①-②-|
⑦⑥⑤④ |③-④⑤|
□⑧⑧□ |⑥⑦-⑧|
③□□② |----|
19
①□□□ |--①-|
□□⑧② |②-③④|
□⑦⑦□ |⑤⑥-⑦|
③④⑤⑥ |--⑧-|
20
①⑤②⑥ |①-②-|
⑤①⑥② |③-④-|
③⑦④⑧ |⑤-⑥-|
⑦③⑧④ |⑦-⑧-|
21
□⑥⑤⑦ |--①-|
□④③① |②-③④|
□□□⑦ |⑤⑥-⑦|
⑧②□□ |--⑧-|
22
⑧□□□ |①-②-|
①⑥⑦③ |③-④⑤|
⑧④⑤□ |⑥⑦-⑧|
□□□② |----|
23
□□□⑥ |--①-|
②□□① |②-③-|
□⑤④⑥ |④⑤-⑥|
③□⑦□ |--⑦-|
24
□①②⑥ |①-②-|
①⑤④② |③-④⑤|
③⑤④⑦ |--⑥-|
□③⑧□ |⑦-⑧-|
25
□□□□ |①---|
□□□① |--②-|
□□□□ |--③-|
□□□□ |④-⑤-|

③□□∨
□□□□
④□□□
□⑤□②
26
□□□□ |①---|
①□□□ |--②-|
□□□□ |--③-|
□□□1 |④-⑤-|

∨□□③
□□□□
□□□④
②□⑤□
27
②□□□ |①---|
□①①□ |--②-|
□□□□ |----|
1□□② |--③-|

□□□□
□□□□
□□□□
③□□□
28
□□□□ |①---|
□③②① |②---|
□③②① |③---|
□□□□ |④---|

④□□④
□□□□
④□□④
□□□□
29
□②①⑫ |①②③④|
⑥④③⑦ |⑤-⑥⑦|
⑧□⑤⑨ |⑧⑨⑩-|
⑩□⑪□ |⑪-⑫-|
30
□①②□ |①②③④|
⑦③④⑥ |⑤-⑥⑦|
⑨⑤□⑧ |⑧⑨⑩-|
□□□⑩ |⑪-⑫⑬|

□□□□
□□□□
□⑬□□
□⑪⑫□
31
③②②□ |①---|
□□①⑤ |②---|
□④□□ |③-④-|
□□□⑤ |--⑤-|
32
②②④④ |----|
□□□□ |--①-|
①①③③ |②-③-|
□□□□ |④---|
33
④⑤∨∨ |①---|
③□□□ |②---|
②□□□ |③---|
①□①① |④-⑤-|

□□□□
□□□□
□□□□
□□44
34
④□□④ |--①-|
□③□⑦ |②-③-|
□□②⑥ |④-⑤-|
□①□⑤ |⑥-⑦-|
35
③①①③ |①---|
□⑤□□ |②-③-|
□②②□ |--④-|
④□⑥□ |⑤-⑥-|
36
④⑤⑥□ |--①-|
②□□□ |②-③-|
④⑤⑥① |④-⑤-|
□③□□ |⑥---|
37
⑤⑤□□ |--①-|
□②□① |②-③-|
④④□⑥ |④--⑤|
□□③□ |--⑥-|
38
⑤⑤□① |①-②-|
⑤⑤□④ |③-④-|
□③⑥⑥ |⑤---|
□②⑥⑥ |⑥---|
39
③□①① |①---|
□③④□ |②-③-|
②⑤□□ |--④-|
□②⑥□ |⑤-⑥-|
40
④□□⑤ |--①-|
②④⑤□ |②-③-|
⑥□③⑦ |④-⑤-|
①⑥⑦□ |⑥-⑦-|
41
⑥□⑤⑥ |①---|
②④□② |②-③④|
□□③□ |⑤---|
①⑦□□ |⑥-⑦-|
42
□②□□ |①--②|
□□①□ |--③-|
②□③③ |④⑤⑥⑦|
□□□① |⑧⑨⑩⑪|

□□□□
⑧⑨⑩⑪
□□□□
④⑤⑥⑦
43
③①①③ |①---|
□□⑤□ |②-③-|
□②②□ |--④-|
□⑥□④ |⑤-⑥-|
44
□⑥⑤④ |--①-|
□□□② |②-③-|
①⑥⑤④ |④-⑤-|
□□③□ |⑥---|
45
□□⑤⑤ |--①-|
①□②□ |②-③-|
⑥□④④ |④--⑤|
□③□□ |--⑥-|
46
①⑤⑤□ |①-②-|
⑤□③⑤ |③-④-|
⑥④□⑥ |⑤---|
□⑥⑥② |⑥---|
47
①③③① |①---|
□④□□ |②-③-|
□□⑤□ |--④-|
②⑥□② |⑤-⑥-|
48
⑦⑦⑤⑤ |--①-|
□□□② |②-③-|
⑥⑥④④ |④-⑤-|
③□□① |⑥-⑦-|
49
□□□□ |①②③④|
□□□□ |⑤---|
□□⑤⑤ |⑥⑦⑧⑨|
④③②① |⑩-⑪-|

⑩⑩□⑪
⑥⑦⑧⑨
□□□□
⑪□□□
50
□□⑤⑤ |--①-|
□②□□ |②-③-|
④④□① |④---|
□□③□ |⑤---|
51
□□⑦⑥ |①-②-|
①①□⑤ |③-④-|
□□④③ |⑤---|
∧∧②① |⑥-⑦-|
52
□□□□ |①-②-|
11□⑦ |③-④-|
⑥⑤④□ |⑤---|
□③②□ |--⑥⑦|
53
①②③④ |①-②-|
⑤⑥⑦⑧ |③-④-|
□□□□ |⑤-⑥-|
□□□□ |⑦-⑧-|
54
①□①□ |①--②|
□□□□ |--③-|
□①②□ |④--⑤|
③③□② |--⑥-|

□④□④
⑤□④□
□⑤□⑥
□□□⑥
55
③□□② |①--②|
③①②□ |--③-|
①□①□ |④---|
□□□□ |⑤---|

□⑤⑤□
□□□□
⑤□□⑤
□④④□
56
③□⑥□ |①-②-|
⑦⑤□□ |③-④⑤|
□②④□ |⑥--⑦|
□⑧□① |--⑧-|
57
⑤④□③ |①--②|
□□□① |--③-|
□□□□ |--④-|
□□②□ |⑤---|
58
⑦□⑥□ |①-②-|
③⑤②□ |③-④⑤|
□□④⑧ |⑥--⑦|
□□□① |--⑧-|
59
□□□① |①--②|
④④⑤⑤ |--③-|
②□□□ |--④-|
□□③□ |⑤---|
60
□⑥□③ |①-②-|
□□⑤⑦ |③-④⑤|
□④②□ |⑥--⑦|
①□⑧□ |--⑧-|
61
③□④⑤ |①--②|
①□□□ |--③-|
□□□□ |--④-|
□②□□ |⑤---|
62
④②□④ |①---|
③□①③ |②---|
②□④② |③---|
①③□① |④---|
63
□①②□ |①②-③|
⑦③④⑧ |④-⑤⑥|
⑦□□⑧ |--⑦-|
□⑤⑥□ |⑧---|
64
①□①□ |①--②|
□□□□ |--③-|
□①②□ |④--⑤|
③③□② |--⑥-|

□④□④
⑤□④□
□⑤□⑥
□□□⑥
65
③⑤□② |①--②|
③①②⑤ |--③-|
①⑤①□ |④---|
□④④□ |⑤---|
66
□□□□ |----|
□□□□ |----|
□□□□ |----|
□□□□ |----|
最終更新:2022年11月16日 08:18