アットウィキロゴ
わくわくエブリデイ
白上フブキ・大神ミオ

BASIC

Level: 2
BPM: 145
Notes: 124

1
口口口口 |----|
口口口口 |----|
口口口口 |----|
口口口口 |----|
2
口口口口 |①---|
口口口口 |----|
口②口口 |②---|
口①口口 |----|
3
口②②口 |①---|
口①口口 |----|
口口口口 |②---|
口口口口 |----|
4
口口口口 |①---|
口口口口 |----|
口口②① |②---|
口口口口 |----|
5
口口口口 |①---|
①②口口 |----|
口口口口 |②---|
口口口口 |----|
6
口口口口 |①---|
口口②① |----|
口口口口 |②---|
口口口口 |----|
7
口口口口 |①---|
口口口口 |----|
①②口口 |②---|
口口口口 |----|
8
口口口口 |①---|
口口口口 |----|
口口口口 |②---|
口口②① |----|
9
口口口口 |①---|
口口口口 |----|
口口口口 |②---|
①②口口 |----|
10
口口口口 |①---|
口口①口 |----|
口②口口 |②---|
口口口口 |----|
11
口口口口 |①---|
口②口口 |----|
口口口口 |②---|
口口①口 |----|
12
口口口① |①---|
口口口口 |----|
口口口口 |----|
口口口口 |----|
13
口口口口 |①---|
口口②口 |----|
口口①口 |②---|
口口口口 |----|
14
①口口口 |①---|
口口口口 |----|
口口口口 |----|
口口口口 |----|
15
口口口口 |①---|
口②口口 |----|
口①口口 |②---|
口口口口 |----|
16
口①②口 |①---|
口口口口 |----|
口口口口 |②---|
口口口口 |----|
17
口口口口 |①---|
②口口口 |----|
①口口口 |②---|
口口口口 |----|
18
口①口口 |①---|
口口口口 |----|
口口口口 |----|
口口口口 |----|
19
口口口口 |①---|
口口口② |----|
口口口① |②---|
口口口口 |----|
20
②口①口 |①---|
口口口口 |----|
口口口口 |②---|
口口口口 |----|
21
口口口口 |①---|
口①口口 |----|
口口②口 |②---|
口口口口 |----|
22
口口口口 |①---|
口口口口 |----|
口口口口 |②---|
②口口① |----|
23
口口口口 |①---|
口口②口 |----|
口①口口 |②---|
口口口口 |----|
24
口口口① |①---|
口口口口 |----|
口口口口 |②---|
口②口口 |----|
25
口口口口 |①---|
口②口口 |----|
口口①口 |②---|
口口口口 |----|
26
口②①口 |①---|
口口口口 |----|
口口口口 |②---|
口口口口 |----|
27
口口口口 |①---|
口②②口 |----|
口①①口 |②---|
口口口口 |----|
28
①口口① |①---|
口口口口 |----|
②口口② |②---|
口口口口 |----|
29
口口口口 |①---|
口口口口 |----|
口②②口 |②---|
口①①口 |----|
30
口②②口 |①---|
口①①口 |----|
口口口口 |②---|
口口口口 |----|
31
①口口① |①---|
口口口口 |----|
口口口口 |----|
口口口口 |----|
32
口①口口 |①---|
口口②口 |----|
口口口口 |②---|
口口口口 |----|
33
口口口口 |①---|
口口口口 |----|
口①口口 |②---|
口口②口 |----|
34
口口口口 |①---|
口口口口 |----|
口口口② |②---|
①口口口 |----|
35
口口口口 |①---|
①口口口 |----|
口口口口 |----|
口口口口 |----|
36
①口口① |①---|
口口口口 |----|
②口口② |②---|
口口口口 |----|
37
口口口口 |①---|
口口口口 |----|
口②②口 |②---|
口①①口 |----|
38
口②②口 |①---|
口①①口 |----|
口口口口 |②---|
口口口口 |----|
39
①口口① |①---|
口口口口 |----|
②口口② |②---|
口口口口 |----|
40
口口口口 |①---|
口口口口 |----|
口②口口 |②---|
口①口口 |----|
41
口口口口 |①---|
口口口口 |----|
口口②口 |②---|
口口①口 |----|
42
口口口口 |①---|
①②口口 |----|
口口口口 |②---|
口口口口 |----|
43
口口口口 |①---|
口口①② |----|
口口口口 |②---|
口口口口 |----|
44
口口口口 |①---|
口口口口 |----|
口②口口 |②---|
口①口口 |----|
45
口口口口 |①---|
口口口口 |----|
口口②口 |②---|
口口①口 |----|
46
①口口① |①---|
②口口② |----|
口口口口 |②---|
口口口口 |----|
47
口口口口 |①---|
口口口口 |----|
①口口① |②---|
②口口② |----|
48
口口口口 |①---|
口口口口 |----|
口①①口 |----|
口口口口 |----|
49
口口口① |①---|
口口②口 |----|
口口口口 |②---|
口口口口 |----|
50
口口口口 |①---|
口口口口 |----|
口①口口 |----|
口口口口 |----|
51
①口口口 |①---|
口②口口 |----|
口口口口 |②---|
口口口口 |----|
52
口口口口 |①---|
口口口口 |----|
口口①口 |----|
口口口口 |----|
53
口口口口 |----|
口口口口 |----|
口口口口 |----|
口口口口 |----|
54
口口口口 |①---|
口口①口 |----|
口②口口 |②---|
口口口口 |----|
55
口口口口 |①---|
口②口口 |----|
口口口口 |②---|
口口①口 |----|
56
①口口① |①---|
口口口口 |----|
口口口口 |----|
口口口口 |----|
57
口口口口 |①---|
口①口口 |----|
口口口口 |----|
口口口口 |----|

accuracy: 100%
最終更新:2023年10月23日 19:49