アットウィキロゴ
わくわくエブリデイ
白上フブキ・大神ミオ

ADVANCED

Level: 4
BPM: 145
Notes: 228

1
口口口口 |----|
口口口口 |----|
口口口口 |----|
口口口口 |----|
2
口口口④ |①---|
口口③口 |②---|
口②口口 |③---|
①口口口 |④---|
3
口②②口 |①---|
口口口口 |--②-|
口口口口 |----|
口①口口 |----|
4
④③口口 |①---|
口②口口 |②---|
口①①口 |③---|
口口口口 |④---|
5
口口③④ |①---|
口口②口 |②---|
口①①口 |③---|
口口口口 |④---|
6
口口口口 |①---|
④③口口 |②---|
口②口口 |③---|
口①①口 |④---|
7
口口口口 |①---|
口口③④ |②---|
口口②口 |③---|
口①①口 |④---|
8
口口口口 |①---|
③④口口 |②---|
②口口口 |③---|
①口口① |④---|
9
口口口口 |①---|
口口④③ |②---|
口口口② |③---|
①口口① |④---|
10
口①①口 |①---|
口③③口 |--②-|
口②②口 |--③-|
口口口口 |----|
11
口口口口 |①---|
口口口口 |----|
②口口② |②---|
①口口① |----|
12
①口口① |①---|
口②口口 |②---|
口口③口 |③---|
口④口口 |④---|
13
口口①① |①---|
口口口口 |----|
口口②② |②---|
口口口口 |----|
14
口口口口 |----|
口口①口 |①---|
口②口口 |②---|
口口③口 |③---|
15
①①口口 |①---|
口口口口 |----|
②②口口 |②---|
口口口口 |----|
16
②口口② |①---|
口①①口 |----|
口口口口 |②---|
口口口口 |----|
17
口口口口 |①---|
②②口口 |----|
口口口口 |②---|
①①口口 |----|
18
口③口口 |----|
口口②口 |①---|
口①口口 |②---|
口口口口 |③---|
19
口口口口 |①---|
口口②② |----|
口口口口 |②---|
口口①① |----|
20
②口口口 |①---|
口③口口 |----|
口①①口 |②---|
口口口口 |③---|
21
口③①口 |①---|
口口④② |②---|
口口口口 |③---|
口口口口 |④---|
22
口口口口 |①---|
口口口口 |----|
口①③口 |②---|
口口口② |③---|
23
口口口口 |①---|
口口口口 |②---|
②④口口 |③---|
口①③口 |④---|
24
口③口口 |①---|
②口①口 |----|
口口口口 |②---|
口口口口 |③---|
25
口口口② |①---|
口③①口 |②---|
口口④口 |③---|
口口口口 |④---|
26
②②口口 |①---|
口口口口 |----|
口③③口 |②---|
口①口口 |--③-|
27
口口口口 |----|
②口口② |①---|
口口口口 |②---|
口①①口 |----|
28
①口①口 |①---|
口口②口 |②---|
口③口口 |③---|
口口④口 |④---|
29
口①口① |①---|
口②口口 |②---|
口口③口 |③---|
口④口口 |④---|
30
①口①口 |①---|
口②口② |②---|
③口③口 |③---|
口④口④ |④---|
31
口口口口 |①---|
口②①口 |----|
口①口口 |----|
口口口口 |②---|
32
口口口① |①---|
②口口口 |②---|
口口口③ |③---|
④口口口 |④---|
33
口①口口 |①---|
口口②口 |②---|
口③口口 |③---|
口口④口 |④---|
34
口口①口 |①---|
口②口口 |②---|
口口③口 |③---|
口④口口 |④---|
35
①口口口 |①---|
口口口② |②---|
③口口口 |③---|
口口口④ |④---|
36
①口①口 |①---|
口口②口 |②---|
口③口口 |③---|
口口④口 |④---|
37
口①口① |①---|
口②口口 |②---|
口口③口 |③---|
口④口口 |④---|
38
①口①口 |①---|
口②口② |②---|
③口③口 |③---|
口④口④ |④---|
39
口口口口 |①---|
口②①口 |----|
口①②口 |②---|
口口口口 |----|
40
①口①口 |①---|
口口口口 |----|
口口口口 |②---|
口②口② |----|
41
口①口① |①---|
口口口口 |----|
口口口口 |②---|
②口②口 |----|
42
口口口口 |①---|
口②②口 |----|
口①①口 |②---|
口口口口 |----|
43
①口口① |①---|
口口口口 |----|
口口口口 |②---|
②口口② |----|
44
①口①口 |①---|
口口口口 |----|
口口口口 |②---|
口②口② |----|
45
口①口① |①---|
口口口口 |----|
口口口口 |②---|
②口②口 |----|
46
口口口口 |①---|
口②②口 |----|
口①①口 |②---|
口口口口 |----|
47
①口口① |①---|
口口口口 |----|
口口口口 |②---|
②口口② |----|
48
口口口口 |①---|
口①①口 |----|
口口口口 |----|
口口口口 |----|
49
①口口口 |①---|
口口④口 |②---|
口③口口 |③---|
口口②口 |④---|
50
口①口② |①---|
口口口口 |②---|
口口口口 |----|
口口口口 |----|
51
口①口口 |----|
口口②口 |①---|
口③口口 |②---|
口口口口 |③---|
52
口口口口 |①---|
口②口口 |②---|
口口口口 |----|
口口①口 |----|
53
口④②口 |①---|
口口口口 |②---|
口口口口 |③---|
口③①口 |④---|
54
口口口① |①---|
②口口口 |②---|
口口口③ |③---|
④口口口 |④---|
55
口口口口 |①---|
口②②口 |----|
口①①口 |②---|
口口口口 |----|
56
①口口① |①---|
口口口口 |----|
口口口口 |----|
口口口口 |----|
57
口口口口 |①---|
口口口口 |----|
口口①口 |----|
口口口口 |----|

accuracy: 100%
最終更新:2023年10月23日 19:54