アットウィキロゴ
わくわくエブリデイ
白上フブキ・大神ミオ

EXTREME

Level: 6
BPM: 145
Notes: 452

1
口口口口 |----|
口口口口 |----|
口口口口 |----|
口口口口 |----|
2
口口口④ |①---|
口口③口 |②---|
口②口口 |③---|
①口口口 |④---|
3
口②②口 |①---|
口口口口 |--②-|
口口口口 |----|
口①口口 |----|
4
口口口口 |①---|
口①①⑥ |②-③-|
口⑤口② |--④-|
④口③④ |⑤-⑥-|
5
①①⑤⑤ |①-②-|
口口②口 |③-④-|
③口口口 |--⑤-|
口口④④ |----|
6
④口口④ |①-②-|
口③口口 |③-④-|
②口口口
口①①口

口口口口
口⑦口口
口口⑥口 |--⑤-|
口⑤⑤口 |⑥-⑦-|
7
⑤⑤①① |①-②-|
②口口口 |③-④-|
口口口③ |--⑤-|
④④口口 |----|
8
④②④② |①---|
口口口口 |②-③-|
口口口口 |--④-|
③①①口 |----|
9
口口口③ |①---|
口④①口 |②-③-|
口①④口 |--④-|
③口口② |----|
10
①口口① |①-②-|
口④④口 |--③-|
口③③口 |--④-|
②口口② |----|
11
②②②② |①---|
口口口口 |----|
口口口口 |②---|
①①①① |----|
12
口口口口 |①---|
口①①口 |②-③-|
口①①口
②③口口

④口口口
口⑤口口
口口⑥口 |--④-|
口口口口 |⑤-⑥-|
13
口①④口 |①--②|
①口口④ |--③-|
③口口② |--④-|
口③②口 |----|
14
口②口口 |①---|
口口口口 |②-③-|
③口口口
①口口①

⑤口口口
口口口口
口④口口 |--④-|
口口口⑥ |⑤-⑥-|
15
口口①口 |①--②|
①②③口 |--③-|
③口口②
口口口口

口⑤口口
⑤口口口
口口口口 |--④-|
口④④口 |--⑤-|
16
口口①④ |①---|
口口⑤① |②-③-|
②⑥口③ |--④-|
口②③口 |⑤-⑥-|
17
口④①口 |①--②|
④口口① |--③-|
②口口③ |--④-|
口②③口 |----|
18
②口口③ |①---|
口口口口 |②-③-|
口口口口
口①①口

口口口口
口口⑤口
口⑥口口 |--④-|
口④口口 |⑤-⑥-|
19
②口②① |①--②|
③⑤④口 |--③-|
口⑤④① |--④-|
③口口口 |⑤---|
20
①口口① |①---|
口③口口 |②-③-|
口口口②
口口口口

口⑦口⑥
⑥口口④
④⑤口口 |④-⑤-|
口口口口 |⑥-⑦-|
21
⑥口口⑦ |①-②-|
④⑦口⑤ |③-④-|
口口口③ |⑤-⑥-|
②口口① |⑦---|
22
⑥口口⑦ |①---|
④口⑥③ |②-③-|
②口④⑤ |④-⑤-|
①口口① |⑥-⑦-|
23
⑦口口⑥ |①-②-|
⑤口④口 |③-④-|
③口口口 |⑤-⑥-|
①口⑦② |⑦---|
24
⑥③口⑥ |①---|
口⑤口④ |②-③-|
④口口② |④-⑤-|
①⑦口① |⑥-⑦-|
25
口④口⑦ |①-②-|
②口口⑤ |③-④-|
⑥⑦口③ |⑤-⑥-|
口口口① |⑦---|
26
③口口⑤ |①---|
口口口④ |②-③-|
口④口② |④---|
①⑥⑥① |⑤-⑥-|
27
③②①③ |--①-|
口口口口 |②---|
口③③口 |③---|
①口口② |----|
28
口①①口 |①---|
②口④③ |--②-|
①④口① |③---|
口②③口 |--④-|
29
③⑤④② |--①-|
⑤①口④ |②-③-|
⑥口①⑦ |④-⑤-|
②⑥⑦③ |⑥-⑦-|
30
③④④② |①---|
口①口口 |②-③-|
口口①口 |--④-|
②⑤⑤③ |--⑤-|
31
口口口口 |--①-|
口①②口 |②---|
口①②口
口口口口

③③口口
口④④口
口口口口 |----|
口口口口 |③-④-|
32
⑤⑤③③ |①---|
⑤⑤口口 |②-③-|
口口①① |--④-|
②口④④ |--⑤-|
33
口口口口 |----|
口口①① |①---|
②②①① |②---|
②②口③ |③---|
34
③①①③ |①---|
①③③① |②-③-|
口口口口
口口②口

口口口口
⑤口口⑤
⑤④④⑤ |--④-|
④口口④ |--⑤-|
35
口①②口 |--①-|
口①②口 |②---|
口口④口 |③---|
口③口口 |④---|
36
口①①口 |①---|
②口口口 |--②-|
①口口①
口②口口

口④④口
口口口③
口口口口 |③---|
口口③口 |--④-|
37
②口口口 |--①-|
口口⑥③ |②-③-|
④⑦口口 |④-⑤-|
口①①⑤ |⑥-⑦-|
38
③①①③ |①---|
口口口口 |②-③-|
口口口口
口②②口

口⑤⑤口
口口口口
口口口口 |--④-|
④口口④ |--⑤-|
39
②口口③ |----|
口口口口 |①---|
②①①③ |②-③-|
口口口口 |----|
40
口⑦⑥⑤ |①-②-|
口①口口 |③-④-|
口口①口 |--⑤-|
②③④口 |⑥-⑦-|
41
口口口口 |--①-|
口④③口 |②-③-|
①口口② |--④-|
⑤③④口 |--⑤-|
42
口④④口 |①---|
口口口口 |②-③-|
口①③口 |--④-|
口⑤⑤② |--⑤-|
43
①口口① |①---|
④②④② |②-③-|
③⑤③⑤ |--④-|
口口口口 |⑤---|
44
口④③② |①-②-|
口①口口 |③-④-|
口口①口 |--⑤-|
⑤⑥⑦口 |⑥-⑦-|
45
口口口① |--①-|
口口口② |②-③-|
口口口③
口口口口

口口⑤⑤
口④口口
口口口口 |--④-|
⑤⑤口口 |--⑤-|
46
②②③口 |----|
①口③① |①---|
①③口① |②---|
口③②② |③---|
47
②口③③ |①---|
口①口① |②-③-|
①口①口
③③口②

口口口口
口④⑤口
口⑤④口 |--④-|
口口口口 |--⑤-|
48
①口口② |--①-|
口口口口 |②---|
口口口口 |----|
口口口口 |----|
49
口①口④ |----|
口②①口 |①---|
口③②口 |②---|
口口③口 |③-④-|
50
口口口口 |--①-|
口①②口 |②---|
①口口② |----|
口口口口 |----|
51
口口口口 |----|
⑤①口④ |①-②-|
⑤口②④ |③---|
口③口口 |④-⑤-|
52
口②②口 |--①-|
口口②口 |②---|
口②口口 |----|
口口口① |----|
53
口口口口 |----|
口口口口 |----|
口口口口 |----|
口口口口 |----|
54
①口口① |①-②-|
口④③口 |--③-|
口③④口 |--④-|
②口口② |----|
55
口口口口 |①---|
口口口口 |----|
②口口② |②---|
口①①口 |----|
56
①口口① |①---|
口口口口 |----|
口①①口 |----|
口口口口 |----|
57
口①①口 |①---|
口①口① |----|
①①口口 |----|
①①口口 |----|

accuracy: 100%
最終更新:2023年10月23日 23:03