アットウィキロゴ
BPM:190
1
①□③□ |①-②-|
□②□④ |③-④-|
⑤□□□ |⑤---|
⑤□⑦⑥ |⑥-⑦-|
2
①□□□ |--①-|
□②□□ |②-③-|
□□③□ |--④-|
④⑤□□ |⑤---|
3
□③□① |①-②-|
④□②□ |③-④-|
□□□⑤ |⑤---|
⑥⑦□⑤ |⑥-⑦-|
4
□②①□ |--①-|
②□□① |--②-|
□□□□ |----|
□□□□ |----|
5
□□②□ |①--②|
□①①① |--③-|
□③□□ |----|
□□③③ |----|
6
④②□□ |①--②|
①①①□ |--③-|
③□□□ |--④-|
□③③□ |----|
7
□□②□ |①--②|
□①①① |--③-|
□③□□ |----|
④□③③ |--④-|
8
□②①□ |--①②|
⑧④③⑦ |③④⑤⑥|
⑧⑥⑤⑦ |⑦-⑧-|
□□□□ |----|
9
①□⑥① |①-②-|
□④③⑥ |--③-|
□⑤⑤⑥ |④---|
④②②③ |⑤-⑥-|
10
④①□⑤ |--①-|
①④⑤□ |----|
①□□□ |②-③-|
②②③③ |④-⑤-|
11
⑤□□⑥ |--①-|
①⑤⑥② |②-③-|
①③④② |④---|
③□□④ |⑤-⑥-|
12
□④⑤□ |--①-|
④□□⑤ |----|
②□□③ |②-③-|
②①①③ |④-⑤-|
13
④⑤⑥④ |--①-|
□③③□ |②-③-|
⑤②②⑥ |④---|
□①①□ |⑤-⑥-|
14
□□□□ |----|
□②①□ |①---|
□③③□ |②-③-|
□①②□ |----|
15
①①②② |①---|
①□□② |--②-|
□③□□ |----|
③□□□ |③---|
16
⑤③②④ |--①-|
⑤□□④ |----|
③□①② |②-③-|
□□□① |④-⑤-|
17
□□⑥□ |--①-|
□④③⑥ |②-③-|
□⑤⑤⑥ |④---|
④②①③ |⑤-⑥-|
18
④①□⑤ |--①-|
①④⑤□ |----|
①□□□ |②-③-|
②②③③ |④-⑤-|
19
⑤□□⑥ |--①-|
①⑤⑥② |②-③-|
①③④② |④---|
③□□④ |⑤-⑥-|
20
□③②□ |--①-|
□□□□ |--②-|
②□□③ |--③-|
□①①□ |----|
21
①□□□ |①---|
②⑥□⑥ |②---|
③⑤□⑤ |③-④-|
□④□④ |⑤-⑥-|
22
③□①□ |①---|
③□□□ |②---|
□□□④ |③-④-|
②□②④ |----|
23
□①①□ |①---|
□③②□ |②-③-|
□①①□ |--④⑤|
□□□□ |⑥-⑦-|

□□⑦⑦
□□□④
□□□⑤
□□□⑥
24
③③□□ |--①-|
□□⑥□ |②-③-|
□①②□ |--④-|
□⑤④□ |⑤-⑥-|
25
□□⑦⑦ |①---|
①□□④ |②-③-|
①③②⑤ |--④⑤|
□□□⑥ |⑥-⑦-|
26
③③□□ |--①-|
□①②□ |②-③-|
□□□□ |--④-|
□⑤④□ |⑤---|
27
⑦⑦□□ |①---|
④②③□ |②-③-|
⑤①①□ |--④⑤|
⑥□□□ |⑥-⑦-|
28
□□③③ |--①-|
□⑥□□ |②-③-|
□②①□ |--④-|
□④⑤□ |⑤-⑥-|
29
⑦⑦□□ |①---|
④□□① |②-③-|
⑤②③① |--④⑤|
⑥□□□ |⑥-⑦-|
30
□□③③ |--①-|
□②①□ |②-③-|
□④⑤□ |--④-|
□□□□ |⑤---|
31
□□□□ |①---|
□□③□ |----|
□□□□ |②---|
①①□② |③---|
32
□①②□ |①---|
①③□② |--②-|
□□④□ |----|
□□□□ |③-④-|
33
③□□② |①---|
□□⑤④ |②-③-|
□□□□ |--④-|
□①④⑤ |--⑤-|
34
□□□□ |----|
□□□□ |----|
①②□□ |①-②-|
③□□□ |--③-|
35
□①□□ |----|
①□③□ |①---|
□□□□ |②---|
□②□□ |③---|
36
①③③② |①---|
□□□□ |--②-|
□①②□ |----|
□□□□ |③---|
37
□□□□ |①---|
②①①□ |----|
□③□□ |--②-|
①□④① |③-④-|
38
□□②① |----|
□□②① |----|
□□□□ |①---|
□□□□ |②---|
39
□①□□ |①---|
□①□□ |----|
□④□□ |--②-|
②□□③ |③-④-|
40
②②②□ |----|
□□□□ |----|
□□□□ |--①-|
□①①□ |--②-|
41
□□□□ |--①-|
□②②② |②---|
③③③□ |③---|
①④④④ |④---|
42
①①①① |①---|
③③③③ |----|
②②②② |②---|
□③③□ |--③-|
43
⑦⑥⑤④ |--①-|
□⑨⑧⑩ |②-③-|
□③□□ |④⑤⑥⑦|
①□⑩② |⑧⑨⑩-|
44
⑥⑥□□ |--①-|
①□□⑤ |②---|
④②②□ |③-④-|
□①□③ |⑤-⑥-|
45
□□⑤□ |--①-|
□③②⑤ |--②-|
□④④⑤ |③---|
③①①② |④-⑤-|
46
④①□⑤ |--①-|
①④⑤□ |----|
①□□□ |②-③-|
②②③③ |④-⑤-|
47
⑤□□⑥ |--①-|
①⑤⑥② |②-③-|
①③④② |④---|
③□□④ |⑤-⑥-|
48
□④⑤□ |--①-|
④□□⑤ |----|
②□□③ |②-③-|
②①①③ |④-⑤-|
49
④⑤⑥④ |--①-|
□③③□ |②-③-|
⑤②②⑥ |④---|
□①①□ |⑤-⑥-|
50
□□□□ |----|
□②①□ |①---|
□③③□ |②-③-|
□①②□ |----|
51
①①②② |①---|
①□□② |--②-|
□③□□ |----|
③□□□ |③---|
52
⑤③②④ |--①-|
⑤□□④ |----|
③□①② |②-③-|
□□□① |④-⑤-|
53
⑥□□⑤ |--①-|
□④③□ |②-③-|
⑥□□⑤ |④---|
④②①③ |⑤-⑥-|
54
④④①□ |--①-|
②□□① |②-③-|
□②③□ |----|
□□④③ |--④-|
55
④④①① |--①-|
③②③② |--②-|
②③②③ |--③-|
□①④④ |--④-|
56
□□□② |----|
□③□□ |----|
□□④□ |①-②-|
①□□□ |③-④-|
57
①①□□ |①---|
②⑦②⑦ |②-③-|
④⑥□⑥ |④-⑤-|
□⑤③⑤ |⑥-⑦-|
58
③□①□ |①---|
③□□□ |②---|
□□□④ |③-④-|
②□②④ |----|
59
□①①□ |①---|
□③②□ |②-③-|
□①①□ |--④⑤|
□□□□ |⑥-⑦-|

□□⑦⑦
□□□④
□□□⑤
□□□⑥
60
③③□□ |--①-|
□□⑥□ |②-③-|
□①②□ |--④-|
□⑤④□ |⑤-⑥-|
61
□□⑦⑦ |①---|
①□□④ |②-③-|
①③②⑤ |--④⑤|
□□□⑥ |⑥-⑦-|
62
③③□□ |--①-|
□①②□ |②-③-|
□□□□ |--④-|
□⑤④□ |⑤---|
63
⑦⑦□□ |①---|
④②③□ |②-③-|
⑤①①□ |--④⑤|
⑥□□□ |⑥-⑦-|
64
□□③③ |--①-|
□⑥□□ |②-③-|
□②①□ |--④-|
□④⑤□ |⑤-⑥-|
65
⑦⑦□□ |①---|
④□□① |②-③-|
⑤②③① |--④⑤|
⑥□□□ |⑥-⑦-|
66
□□③③ |--①-|
□②①□ |②-③-|
□④⑤□ |--④-|
□□□□ |⑤---|
67
①①③③ |①-②-|
②②④④ |③-④-|
⑥□□⑥ |--⑤-|
□⑤⑤□ |--⑥-|
68
②②②② |--①-|
□□□□ |②---|
□□□□ |----|
①□□① |----|
69
□□□□ |----|
□□□□ |----|
□□□□ |----|
□□□□ |----|
最終更新:2022年11月16日 08:19