アットウィキロゴ
BPM:170-205
1
□□⑧□ |①-②-|
⑦③④□ |③-④-|
□①②⑥ |⑤-⑥-|
□⑤□□ |⑦-⑧-|
2
④⑥□⑤ |①-②-③-|
□③□⑦ |④-⑤-|
⑧②□□ |⑥-⑦-|
①□⑨□ |⑧-⑨-|
3
□□②⑥ |①-②-|
⑦□④□ |③-④-|
□③□⑧ |⑤-⑥-|
⑤①□□ |⑦-⑧-|
4
⑤④□□ |①②③④|
□③□□ |⑤-⑥-|
□②□□ |⑦-⑧-|
□①□⑥ |⑨-⑩-|

□□⑩□
□□□⑧
⑦□□□
□⑨□□
5
□□□④ |①-②-|
□③□□ |③-④-|
□□②□ |⑤-⑥-|
①□□□ |⑦-⑧-|

⑤□⑥□
□□□□
□□□□
⑦□□⑧
6
□⑥⑦□ |①-②-③-|
④⑤⑧⑨ |④-⑤-⑥-|
③②⑪⑩ |⑦-⑧-⑨-|
□①⑫□ |⑩-⑪-⑫-|
7
□∨□□ |①---|
□□□□ |----|
□□□□ |----|
□①□□ |----|
8
□□①□ |①---|
□□□□ |----|
□□□□ |----|
□□∧□ |----|
9
□□3□ |(205)①---|
□□□□ |②---|
①②③④ |③---|
□3□□ |④---|
10
③□□③ |①---|
□②②□ |--②-|
□□□□ |----|
①□□① |③---|
11
□□□□ |①-②-|
⑤⑥⑦⑧ |③-④-|
①②③④ |⑤-⑥-|
□□□□ |⑦-⑧-|
12
⑧④③② |①-②③|
⑥□□□ |④-⑤-|
□□⑦⑤ |--⑥-|
⑤①①⑧ |⑦-⑧-|
13
□□□□ |--①-|
□④②⑦ |②-③-|
③□⑥④ |④-⑤-|
□①⑤□ |⑥-⑦-|
14
⑤①①□ |①-②-|
②□□□ |③-④-|
⑥③□⑥ |--⑤-|
④□□④ |--⑥-|
15
□⑥④⑤ |--①②|
□□③⑧ |③④⑤-|
□⑦②□ |⑥-⑦-|
□□①⑨ |⑧-⑨-|
16
⑦⑦④④ |①-②-|
□③⑥□ |③-④-|
②□□□ |--⑤-|
①①⑤□ |⑥-⑦-|
17
□□□□ |①-②-|
□⑤□④ |③-④-|
⑥②③□ |--⑤-|
①⑦□④ |⑥-⑦-|
18
□⑥□□ |①-②-|
①⑦③⑦ |③-④-|
□④⑤① |--⑤-|
②□□④ |⑥-⑦-|
19
④□①⑤ |--①-|
②□□□ |②-③-|
□□□□ |④-⑤-|
④□③⑤ |----|
20
□②①□ |---①|
□③⑧□ |②-③-④-|
⑦④□□ |⑤-⑥-|
□⑤□⑥ |⑦-⑧-|
21
④②□□ |--①-|
②□□□ |--②-|
□□□① |--③-|
③□①□ |④---|
22
⑧□①② |---①|
□□□③ |②-③-④-|
⑦□□④ |⑤-⑥-|
□⑥□⑤ |⑦-⑧-|
23
□①□□ |--①-|
①□②□ |--②-|
□②□③ |--③-|
□□③□ |----|
24
②①□□ |---①|
③□⑧□ |②-③-④-|
④⑦□□ |⑤-⑥-|
⑤□□⑥ |⑦-⑧-|
25
□□①④ |--①-|
□□□① |--②-|
②□□□ |--③-|
□②□③ |④---|
26
□①②□ |---①|
⑦□③⑧ |②-③-④-|
□□④□ |⑤-⑥-|
⑥□⑤□ |⑦-⑧-|
27
①□④⑤ |--①-|
□②□□ |②-③-|
③□④⑤ |④-⑤-|
□□□□ |----|
28
□①□⑦ |①-②-|
□⑥②□ |③-④-|
□③□□ |--⑤-|
⑤□④□ |⑥-⑦-|
29
③⑥⑤□ |--①②|
②□□□ |③-④-|
①□□④ |⑤-⑥-|
□⑧⑦□ |⑦-⑧-|
30
□□⑦□ |--①-|
□□③⑥ |②-③-|
□②⑤□ |④-⑤-|
①□□④ |⑥-⑦-|
31
④②□① |①-②-|
□⑧⑦⑥ |③-④-|
③□□□ |--⑤-|
□⑤⑤□ |⑥⑦⑧-|
32
□□□⑥ |----|
⑤□□□ |--①②|
①②③□ |③-④-|
④□□□ |⑤-⑥-|
33
⑤□④□ |①-②-|
□③⑥□ |③-④-|
□⑦□② |⑤-⑥-|
□①⑧□ |⑦-⑧-|
34
□②⑤⑤ |①-②-|
□□□③ |③-④-|
⑥□④□ |--⑤-|
①□□□ |--⑥-|
35
□□□□ |①---|
□□□□ |----|
□□□□ |----|
□①□□ |----|
36
①⑤⑤□ |①-②-|
□②□⑥ |③-④-|
③□□□ |--⑤-|
□④□□ |--⑥-|
37
□⑥⑥④ |①-②-|
□□③□ |③-④-|
□⑤⑤② |--⑤-|
□□①□ |--⑥-|
38
④□⑦□ |--①-|
①②□⑥ |②-③-|
□□⑤□ |④-⑤-|
③□□□ |⑥-⑦-|
39
□□□□ |--①-|
□③□□ |②-③-|
②④④□ |--④-|
□①□⑤ |--⑤-|
40
□⑤⑤④ |①-②-|
□□③① |③-④-|
□⑥⑥② |--⑤-|
□□□□ |--⑥-|
41
③④④□ |--①-|
□②□□ |②-③-|
□⑤⑤□ |--④-|
①□□□ |--⑤-|
42
□④□③ |--①-|
④□②□ |②-③-|
□□□⑤ |--④-|
□□⑤① |--⑤-|
43
□□④□ |①-②-|
□③□□ |③-④-|
□□②□ |----|
□①□□ |----|
44
□□⑦□ |--①-|
②⑥□③ |②-③-|
□□□⑤ |④-⑤-|
①□④□ |⑥-⑦-|
45
□②□③ |①-②-|
⑤□□□ |③-④-|
□⑥□□ |--⑤-|
⑦①□④ |⑥-⑦-|
46
⑤③□□ |①-②-|
□⑥□□ |③-④-|
□□□② |--⑤-|
⑦④①□ |⑥-⑦-|
47
□⑤□③ |--①-|
□□④□ |②-③-|
□□②□ |--④-|
⑥□□① |⑤-⑥-|
48
⑧□□□ |①-②-|
④□□□ |③-④-|
⑦③⑥① |⑤-⑥-|
□□②⑤ |⑦-⑧-|
49
□□④① |①-②-|
□⑤②④ |③-④-|
□③⑥□ |--⑤-|
□⑦□□ |⑥-⑦-|
50
□③⑤□ |①-②-|
④⑥②□ |③-④-|
□□⑦① |--⑤-|
□□□□ |⑥-⑦-|
51
□□□□ |----|
□□□□ |--①-|
□□□□ |----|
□①①□ |----|
52
□⑤④④ |①-②-|
□③□□ |③-④-|
①□②⑥ |--⑤-|
⑦⑦□□ |⑥-⑦-|
53
①□□□ |--①-|
□□□□ |--②-|
□②②□ |----|
□③□③ |--③-|
54
③□③□ |--①-|
□④□② |②-③-|
①□□⑤ |--④-|
⑥□⑥□ |⑤-⑥-|
55
□③□③ |--①-|
□⑤□⑥ |②-③-|
④□②□ |--④-|
□①□□ |⑤-⑥-|
56
□⑦⑥④ |①-②-|
②⑨⑧□ |③-④-|
⑤⑤□③ |--⑤-|
①□□□ |⑥⑦⑧⑨|
57
①⑥□□ |--①-|
□□□⑤ |②-③-|
④□②□ |--④-|
□□□③ |⑤-⑥-|
58
□□>① |①-②-|
①①③□ |③-④-|
□□>① |--⑤-|
②④④□ |--⑥-|

⑥□□□
□□□□
⑤□□□
□□□□
59
□⑥②3 |--①-|
□□□□ |--②-|
④①⑤3 |③-④-|
□□□□ |⑤-⑥-|
60
□□□□ |①-②-|
①<①① |③-④-|
□□□□ |--⑤-|
①<□② |--⑥-|

□□□⑥
□③□□
□□□⑤
□④④□
61
□□□□ |--①-|
3⑥②□ |--②-|
□□①⑤ |③-④-|
3④□□ |⑤-⑥-|
62
③①①□ |①-②-|
⑥□>① |③-④-|
④④②□ |--⑤-|
⑤□>① |--⑥-|
63
□□⑤□ |--①-|
□□②3 |--②-|
④□□⑥ |③-④-|
⑥①⑥3 |⑤-⑥-|
64
⑥③⑥③ |--①-|
③□□⑥ |②-③-|
④□②□ |--④-|
□①□⑤ |⑤-⑥-|
65
□③⑥③ |--①-|
③□□□ |②-③-|
□①□④ |--④-|
⑤□②□ |⑤-⑥-|
66
①□<□ |①-②-|
□□□□ |③-④-|
①□<□ |--⑤-|
□□□□ |--⑥-|

□□□⑥
□③③□
□②②⑤
□④④□
67
3□⑤□ |--①-|
⑥□□② |--②-|
3□□□ |③-④-|
④□□① |⑤-⑥-|
68
□>□① |①-②-|
□□□□ |③-④-|
□>□① |--⑤-|
□□□□ |--⑥-|

□□□□
⑥③③□
□②②□
⑤④④□
69
②⑤□3 |--①-|
□□□⑥ |--②-|
①□□3 |③-④-|
□□□④ |⑤-⑥-|
70
□□□□ |①-②-|
①□<□ |③-④-|
□□□□ |--⑤-|
①□<□ |--⑥-|

□□□⑥
□③③□
□②②⑤
□④④□
71
□□□□ |--①-|
4⑥⑥③ |②-③-|
□□②□ |④-⑤-|
4⑤⑤① |--⑥-|
72
①⑤⑥① |--①-|
③□□④ |--②-|
⑤□②⑥ |③-④-|
③□④② |⑤-⑥-|
73
②□□③ |--①-|
⑤□□⑦ |②-③-|
□①□□ |④-⑤-|
□④⑥□ |⑥-⑦-|
74
⑦①①□ |①-②-|
⑤④②⑦ |③-④-|
①③⑥④ |--⑤-|
④□□⑦ |⑥-⑦-|
75
□□□④ |--①-|
□④②⑦ |②-③-|
③□⑥④ |④-⑤-|
□①⑤□ |⑥-⑦-|
76
⑤①①□ |①-②-|
②⑥□□ |③-④-|
⑥③□⑥ |--⑤-|
④□□④ |--⑥-|
77
□⑥④⑤ |--①②|
□□③⑧ |③④⑤-|
□⑦②□ |⑥-⑦-|
□□①⑨ |⑧-⑨-|
78
⑦⑦④④ |①-②-|
④③⑥□ |③-④-|
②□□① |--⑤-|
①①⑤□ |⑥-⑦-|
79
□□□□ |①-②-|
□⑤□④ |③-④-|
⑥②③□ |--⑤-|
①⑦□④ |⑥-⑦-|
80
□⑥①□ |①-②-|
①□③⑦ |③-④-|
⑦④⑤① |--⑤-|
②⑦④④ |⑥-⑦-|
81
⑤□①□ |--①-|
②□⑥□ |②-③-|
□③□□ |④-⑤-|
□⑦□④ |⑥-⑦-|
82
∨□∨□ |①-②-|
□□□□ |③-④-|
□□□□ |--⑤-|
①□①□ |⑥-⑦-|

⑤□④①
□□⑦③
□⑥□②
□□□□
83
□①□② |--①-|
□□□④ |--②-|
□□②□ |③-④-|
3□3⑤ |--⑤-|
84
①□①□ |①-②-|
□□□□ |--③-|
□□□□ |--④-|
∧□∧□ |⑤-⑥-|

□□□③
□□⑤□
□□□②
□④⑥□
85
4□4□ |--①-|
⑥□□⑤ |②-③-|
□③②① |④-⑤-|
⑥□□□ |--⑥-|
86
□∨□∨ |①-②-|
□□□□ |--③-|
□□□□ |④-⑤-|
□①□① |--⑥-|

□②⑥□
□②⑥□
③④⑤□
□□□□
87
①□□□ |--①-|
①④□② |--②-|
⑤④□② |③-④-|
⑤3□3 |--⑤-|
88
□①□① |①-②-|
□□□□ |--③-|
□□□□ |--④-|
□∧□∧ |--⑤-|

②□□□
②④③□
⑤□⑤□
□④③□
89
④1□1 |①-②-|
⑥□⑤□ |③-④-|
□③□□ |⑤-⑥-|
②⑥□⑤ |----|
90
□⑥□② |--①-|
□①⑦③ |②-③-④-|
⑧□①④ |⑤-⑥-|
□□⑧⑤ |⑦-⑧-|
91
①□④□ |--①-|
②⑧⑦⑥ |②-③-|
□⑤③□ |④-⑤-|
③□□□ |⑥⑦⑧-|
92
②□⑥① |--①-|
③□□□ |②-③-④-|
④⑦⑧① |⑤-⑥-|
⑤⑨⑩□ |⑦⑧⑨⑩|
93
□①⑧⑩ |①-②-③-|
⑤③□④ |④-⑤-⑥-|
□⑨⑫⑥ |⑦-⑧-⑨-|
⑦⑪□② |⑩-⑪-⑫-|
94
③①⑦⑪ |①-②-③-|
⑧④□⑥ |④-⑤-⑥-|
⑤⑨⑪⑦ |--⑦-⑧-|
⑩□⑥② |⑨-⑩-⑪-|
95
②□⑥⑩ |--①-②-|
⑦③①⑤ |③-④-⑤-|
④⑧⑩⑥ |--⑥-⑦-|
⑨□⑤① |⑧-⑨-⑩-|
96
□⑤□□ |①-②-|
□□④⑦ |③-④-|
③□□⑥ |--⑤-|
□①□② |⑥-⑦-|
97
④⑤⑤① |--①-|
②⑤⑤□ |②-③-|
□⑤⑤□ |④-⑤-|
③⑤⑤④ |----|
98
□□□□ |----|
□□□□ |----|
□□□□ |----|
□□□□ |----|
最終更新:2022年11月16日 08:20