アットウィキロゴ
BPM:133
1
①□□② |①---|
②□④⑥ |②-③-|
④□①⑤ |④-⑤⑥|
□□□③ |⑦⑧-⑨|

□□⑧⑨
□□□□
□□□□
⑦□□□
2
①□□□ |①②③-|
④□③□ |④---|
□□②④ |⑤-⑥-|
□□□□ |⑦---|

□□□□
□□□⑥
⑤□⑦□
⑦□□⑤
3
①□②□ |①---|
②□⑥④ |②-③-|
④□⑤① |④-⑤⑥|
□□□③ |⑦⑧-⑨|

□□□⑧
□□□□
□□□□
⑦□⑨□
4
①□④⑦ |①②③-|
□⑥□③ |④--⑤|
□⑤□② |⑥-⑦-|
□⑧⑧□ |⑧---|
5
①①□② |①---|
②②□□ |②-③-|
□□①□ |④-⑤⑥|
□□□③ |⑦⑧-⑨|

□□⑧⑨
□□④⑥
④④□⑤
⑦⑦□□
6
①①□□ |①②③-|
④④③□ |④---|
□□②④ |⑤-⑥-|
□□□□ |⑦---|

□□□□
□□□⑥
⑤⑤⑦□
⑦⑦□⑤
7
①①②□ |①---|
②②□□ |②-③-|
□□□① |④-⑤⑥|
□□□③ |⑦⑧-⑨|

□□□⑧
□□⑥④
④④⑤□
⑦⑦⑨□
8
①①④□ |①②③-|
□⑥□③ |④--⑤|
□⑤□② |⑥-⑦-|
□□□□ |⑧---|

⑧□□□
□□⑦⑧
⑧□□□
□⑦□⑧
9
□□⑤④ |①-②-|
③⑥⑩⑨ |③-④⑤|
□□②⑦ |⑥-⑦-|
①⑧□□ |⑧-⑨⑩|
10
□□⑦② |①-②-|
③⑧□□ |③-④⑤|
□①⑤④ |⑥-⑦-|
⑥□⑩⑨ |⑧-⑨⑩|
11
①□□② |①②③④|
⑤□□⑥ |⑤⑥⑦⑧|
①③⑧④ |⑨⑩⑪⑫|
⑦⑤□□ |⑬⑭⑮⑯|

⑬⑨□⑯
□⑨⑫□
⑪⑬□⑭
□⑮□⑩
12
□②②□ |①-②-|
④⑤⑦⑥ |③-④⑤|
□⑧□□ |⑥⑦⑧-|
①□□③ |⑨---|

□⑨⑨□
□□□□
⑨□□⑨
□□□□
13
①⑧⑩⑦ |①-②-|
③⑤□③ |③-④⑤|
⑥⑪④□ |⑥⑦-⑧|
⑨□②□ |⑨-⑩⑪|
14
①④□④ |①-②-|
③□□□ |③④--|
□□□□ |⑤--⑥|
□②②① |⑦-⑧-|

□□⑥□
□□□⑥
⑤□⑤⑤
⑦⑧⑧□
15
①⑧⑩⑦ |①-②-|
③⑤②□ |③-④⑤|
⑥⑪④□ |⑥⑦-⑧|
⑨□□□ |⑨-⑩⑪|
16
①④□④ |①-②-|
③□□□ |③④--|
□□□□ |⑤⑥⑦⑧|
□②②① |⑨⑩⑪-|

⑦□⑧□
□⑨□□
⑪□□⑥
⑤□□⑩
17
□④□⑥ |--①-|
②□③② |②-③④|
⑤①①□ |⑤⑥-⑦|
□②②□ |⑧-⑨⑩|

□□⑨□
□⑦□□
□⑩□□
⑧□□□
18
①④□④ |①-②-|
③□□□ |③④--|
□□□□ |⑤--⑥|
□②②① |⑦-⑧-|

□□⑥□
□□□⑥
⑤□⑤⑤
⑦⑧⑧□
19
①⑨⑪⑧ |①-②③|
④⑥③□ |④-⑤⑥|
⑦⑫⑤② |⑦⑧-⑨|
⑩□□□ |⑩-⑪⑫|
20
①④□④ |①-②-|
③⑦⑥⑤ |③④--|
□□□□ |--⑤-|
□②②① |⑥-⑦-|
21
①⑨⑨① |①--②|
③□□⑩ |③④⑤⑥|
⑦⑧④⑤ |⑦-⑧-|
⑨②⑥⑦ |⑨-⑩-|
22
①⑨⑨□ |①②-③|
④③⑦⑧ |④⑤⑥⑦|
⑧□⑤⑥ |⑧-⑨-|
□②□□ |⑩⑪⑫-|

□□□⑩
□⑪□□
□□□□
⑩□□⑫
23
①⑨⑨□ |①-②-|
③□②⑩ |③④⑤⑥|
⑦⑧④⑤ |⑦-⑧-|
⑨□⑥⑦ |⑨-⑩-|
24
①⑦⑦□ |①②-③|
④③□□ |④⑤⑥⑦|
⑥⑤□□ |--⑧-|
□②□□ |⑨⑩⑪-|

⑨□□⑨
□□⑩□
□□□□
⑧⑪□⑧
25
□①①□ |----|
①④④① |①---|
②①①⑤ |②-③-|
④③□□ |④-⑤-|
26
①□③② |①②③-|
④□□□ |④⑤⑥⑦|
⑧⑤⑥□ |⑧-⑨-|
□⑦□□ |⑩⑪--|

□□⑪□
□⑨⑨□
□□□⑩
⑩□□□
27
①□□① |①-②-|
③□□□ |③④⑤-|
□□④⑤ |⑥-⑦-|
□②②③ |⑧-⑨-|

□□⑥⑦
□⑧⑥⑦
□□□□
⑧⑨⑨□
28
⑦①④□ |①-②③④-⑤⑥|
⑥⑪③⑧ |⑦-⑧⑨⑩-⑪⑫|
⑤⑫②⑨ |⑬-⑭⑮|
□⑬□⑩ |⑯---|

□⑭□⑯
□□□□
□□⑮□
⑯□□□
29
①③⑤⑤ |①-②-|
③□④④ |③---|
④□□③ |④--⑤|
⑥□②□ |⑥---|
30
①⑤□⑤ |①-②-|
③④④③ |③---|
④③①□ |④---|
⑤②□① |⑤---|
31
①□②□ |①-②③|
④⑤⑤□ |④-⑤-|
□□□③ |⑥-⑦⑧|
□□□□ |⑨-⑩-|

□⑩⑩⑧
□□□□
⑥□⑦□
⑨□□□
32
①□□□ |①-②-|
③②④③ |③④⑤⑥|
⑦□⑥⑤ |⑦--⑧|
□□②⑦ |⑨-⑩-|

□⑧⑧□
□□□□
□□□□
⑨⑩⑩□
33
□③③□ |----|
①②②① |①---|
②①①□ |②--③|
④□□□ |④---|
34
①⑤□⑤ |①-②-|
③③④④ |③---|
④□①③ |④---|
⑤①□② |⑤---|
35
①□③□ |①-②③|
④⑤⑤□ |④-⑤-|
□②□□ |⑥-⑦⑧|
□□□□ |⑨-⑩-|

□⑦⑩⑩
□□□□
⑥□⑧□
⑨□□□
36
①□□□ |①---|
□②②□ |②-③④|
□□④③ |⑤-⑥-|
⑤①①□ |⑦-⑧⑨|

□⑦⑦□
□□⑨⑧
□□□□
□⑥⑥□
37
①□④④ |①--②|
□③□□ |--③-|
②□③③ |④⑤--|
□⑤□□ |⑥-⑦-|

□□□□
□□□□
⑦□□□
⑥□⑦⑦
38
□①□□ |①--②|
④□①① |③-④-|
□②□③ |⑤⑥-⑦|
□□□□ |⑧-⑨-|

□□□□
□□⑨□
□⑨⑦□
⑥⑧⑤□
39
①□□④ |①--②|
□③④□ |--③-|
②□□③ |④⑤--|
□⑤③□ |⑥-⑦-|

□□□□
□□□⑥
⑦□⑦□
⑥□□□
40
□①①□ |①--②|
④□③□ |③-④-|
□②□□ |⑤⑥-⑦|
□□□④ |⑧-⑨-|

⑧⑧□⑨
□□⑨⑦
□□⑦⑤
⑥□⑤□
41
□□□□ |①②③④|
□⑧□⑦ |⑤⑥⑦⑧|
□④□③ |⑨⑩⑪⑫|
⑥②⑤① |⑬⑭⑮⑯|

⑫□⑪□
⑯□⑮□
⑩⑭⑨⑬
□□□□
42
⑧④⑦③ |①②③④|
□□□□ |⑤⑥⑦⑧|
⑥□⑤□ |⑨⑩⑪⑫|
□②□① |⑬⑭⑮⑯|

□□□□
⑯⑫⑮⑪
□⑭□⑬
⑩□⑨□
43
④③②① |①②③④|
□□□□ |⑤⑥⑦⑧|
□□□□ |⑨⑩⑪⑫⑬⑭|
⑧⑦⑥⑤ |⑮⑯⑰⑱⑲⑳|

⑯⑭⑬⑮
⑱⑫⑪⑰
⑳⑩⑨⑲
□□□□
44
□⑤⑤□ |①---|
□④④□ |②---|
⑤□□⑤ |③-④-|
□③②① |⑤---|
45
①□□① |①-②-|
③③③① |③-④-|
□□□□ |⑤-⑥-|
□□②④ |⑦-⑧-|

□⑤⑤⑦
□□□⑦
⑤□□⑥
⑦⑧□□
46
①□□□ |①--②|
③①②④ |③-④-|
⑤①②④ |⑤---|
⑥□⑦□ |⑥-⑦-|
47
①④□① |①---|
②□①④ |②-③-|
④□□□ |④---|
□③□□ |⑤---|

□□□□
□□⑤□
□□□□
⑤□□⑤
48
①④②① |①--②|
③□□□ |③-④-|
⑤①②④ |⑤---|
⑥□□□ |⑥---|
49
①①③① |①-②-|
③□□③ |③-④-|
□□④□ |⑤-⑥-|
□②□□ |⑦-⑧-|

□⑦□⑦
□⑤⑤□
⑤⑥□□
⑦□□⑧
50
①□□□ |①--②|
③④②① |③-④-|
⑤④②① |⑤---|
⑥□⑦□ |⑥-⑦-|
51
①□②① |①---|
②□①□ |②-③-|
□□□□ |④---|
□□□③ |⑤-⑥-|

□④□⑤
□⑤□④
④□⑥□
⑤□□□
52
①②③□ |①--②|
③□①② |--③-|
②□□③ |----|
□③②① |④---|

□□□□
□④④□
□④④□
□□□□
53
①④□⑤ |①---|
②□□□ |②---|
③④□⑤ |③---|
④□①① |④-⑤-|
54
①□②□ |①-②-|
③④□② |③-④-|
⑤□④□ |⑤-⑥-|
⑦□□⑥ |⑦---|
55
①③②① |①-②-|
③④□④ |③-④-|
□①②③ |⑤-⑥-|
□□□□ |⑦-⑧-|

□□□⑧
□□⑥□
⑤⑧□□
⑦□□⑥
56
①①②□ |①-②-|
④□□③ |③-④-|
③□□④ |--⑤-|
□②①□ |⑥-⑦-|

⑥□□⑦
□⑥⑦□
□□⑤□
□□□□
57
□②②⑥ |①---|
②□④② |②---|
③□⑤□ |③-④-|
⑤①①③ |⑤-⑥-|
58
①□□□ |①---|
②③③□ |②-③-|
④①⑥① |④---|
⑤②②⑤ |⑤-⑥-|
59
①③□① |①---|
②□□□ |②-③-|
□①□□ |④-⑤-|
□②②□ |⑥-⑦-|

□□□□
□□④④
④⑥⑥⑤
⑥□⑦□
60
①②③□ |①--②|
①②③□ |--③-|
□□□□ |----|
□①□□ |----|
61
⑥□□⑥ |①---|
□□⑤□ |②---|
□④□□ |③-④⑤|
□③②① |⑥---|
62
□□⑤④ |①-②-|
③⑥⑩⑨ |③-④⑤|
□□②⑦ |⑥-⑦-|
①⑧□□ |⑧-⑨⑩|
63
□□⑦② |①-②-|
③⑧□□ |③-④⑤|
□①⑤④ |⑥-⑦-|
⑥□⑩⑨ |⑧-⑨⑩|
64
①□□② |①②③④|
⑤□□⑥ |⑤⑥⑦⑧|
①③⑧④ |⑨⑩⑪⑫|
⑦⑤□□ |⑬⑭⑮⑯|

⑬⑨□⑯
□⑨⑫□
⑪⑬□⑭
□⑮□⑩
65
□②②□ |①-②-|
④⑤⑦⑥ |③-④⑤|
□⑧□□ |⑥⑦⑧-|
①□□③ |⑨---|

□⑨⑨□
□□□□
⑨□□⑨
□□□□
66
□□□□ |----|
□□□□ |----|
□□□□ |----|
□□□□ |----|
最終更新:2022年11月16日 08:20