アットウィキロゴ
BPM:150

1
口口口口 |ーーーー|
口口口口 |ーーーー|
口口口口 |ーーーー|
口口口口 |ーーーー|
2
>口口① |①ーーー|
口口口口 |ーーーー|
口口口口 |ーーーー|
口口口口 |ーーーー|
3
口口口口 |ーーーー|
口口口口 |ーーーー|
口口口口 |ーーーー|
口口口口 |ーーーー|
4
口口口① |①ーーー|
①口口< |ーーーー|
口口口口 |ーーーー|
口口口口 |ーーーー|
5
口口口口 |ーーーー|
口口口口 |ーーーー|
口口口口 |ーーーー|
口口口口 |ーーーー|
6
口口口口 |①ーーー|
①口口口 |ーーーー|
>口口① |ーーーー|
口口口口 |ーーーー|
7
口口口口 |ーーーー|
口口口口 |ーーーー|
口口口口 |ーーーー|
口口口口 |ーーーー|
8
口口口口 |ーーーー|
口口口口 |ーーーー|
口口口口 |ーーーー|
口口口口 |ーーーー|
9
口口口口 |①ーーー|
口口口口 |ーーーー|
口③③① |ーーーー|
①口口< |②ー③ー|

口口口口
口口口口
口口口口
②口口口
10
①③⑤⑤ |①ー②ー|
③口④④ |③ーーー|
④口口③ |④ーー⑤|
⑥口②口 |⑥ーーー|
11
①⑤口⑤ |①ー②ー|
③④④③ |③ーーー|
④③①口 |④ーーー|
⑤②口① |⑤ーーー|
12
①口②⑧ |①ー②③|
④⑤⑤口 |④ー⑤ー|
⑥口⑦③ |⑥ー⑦⑧|
⑨口口口 |⑨ー⑩ー|

口⑩⑩口
口口口口
口口口口
口口口口
13
①⑧⑧口 |①ー②ー|
③②④③ |③④⑤⑥|
⑦口⑥⑤ |⑦ーー⑧|
⑨口②⑦ |⑨ー⑩ー|

口口口口
口口口口
口口口口
口⑩⑩口
14
①④④口 |①ーーー|
②③③② |②ーーー|
③口②口 |③ーー④|
⑤口口口 |⑤ーーー|
15
①⑤口⑤ |①ー②ー|
③③④④ |③ーーー|
④口①③ |④ーーー|
⑤①口② |⑤ーーー|
16
⑦⑧⑨⑩ |①ー②ー③ー|
④②⑤⑪ |④ー⑤ー⑥ー|
口⑥③⑫ |⑦⑧⑨⑩⑪⑫|
口口口① |⑬⑭⑮⑯⑰⑱|

口口口口
⑱口口口
⑰口口口
⑯⑮⑭⑬
17
②口④③ |①ーーー|
⑨⑤①⑧ |②ー③④|
口②①口 |⑤ーーー|
⑦口口⑥ |⑥⑦⑧⑨|
18
⑤②口⑤ |①②ーー|
⑥⑦②口 |③ー④ー|
③⑨口④ |⑤ー⑥⑦|
⑦⑥①⑧ |ー⑧⑨⑩|

口口口口
口口⑩口
口口口口
口口口口
19
③①②⑤ |①ー②ー|
④口口⑥ |③④ー⑤|
①口口② |⑥ー⑦⑧|
⑦④⑥口 |ー⑨⑩ー|

口⑧⑩口
口口口口
⑧口口⑩
口口口⑨
20
③⑥口⑤ |①ーーー|
口③⑤口 |②③ー④|
口①①口 |⑤ー⑥⑦|
口②④口 |ー⑧⑨ー|

口口⑧口
口口口口
口⑦⑨口
⑦口口⑨
21
⑤口口④ |①ー②ー|
①口③② |③④ー⑤|
①口口② |⑥ーーー|
口⑤④口 |ーーーー|

口口口口
口⑥口<
口口口口
口口口口
22
⑤③口⑨ |①ーーー|
⑥①③口 |②③ー④|
⑦①①④ |⑤ー⑥ー⑦ー⑧ーー⑨ーー|
⑧②⑨② |ー⑩⑪⑫|

口口⑫口
口⑪口口
口口⑩口
口口口口
23
⑤①⑩⑦ |①ー②③④ーーー|
口口⑩② |⑤⑥ー⑦|
⑨⑥⑧③ |⑧ー⑨⑩|
⑨⑥⑧④ |ーーーー|
24
⑧④⑥② |①ー②ー|
③①口⑤ |③④ー⑤|
口⑦⑨口 |⑥ー⑦⑧|
⑧④⑥② |ー⑨⑩ー|

口口口⑩
口口口口
口口口口
口口口⑩
25
④④⑤⑤ |①ーーー|
②①①③ |②ー③ー|
②口口③ |④ーーー|
④⑤④⑤ |⑤ーーー|
26
④口⑥口 |①ーーー|
③>①⑤ |②ー③ー④ー|
②>①⑤ |⑤ーーー⑥ー|
口口口⑥ |⑦ー⑧ーーー|

口口口⑧
口⑦②口
口⑦②口
口口⑧口
27
④②⑥⑧ |①ーーー②ー|
①⑦③⑤ |③ー④ーーー|
①⑦③⑤ |⑤ーーー⑥ー|
②④⑧⑥ |⑦ー⑧ーーー|
28
④④⑧⑤ |①ー②ー③ー|
③口⑨③ |ーー④ーーー|
②⑦②⑥ |⑤ー⑥ー⑦ー|
①①⑧⑤ |⑧ー⑨ー⑩ー|

口口口口
⑩口口口
口口口口
口口口口
29
④①口口 |①ー②ー③ー|
口②口③ |④ー⑤ー⑥ー|
⑤口⑥口 |⑦ーーー|
④①口口 |⑧ーーー|

口>⑦⑦
口口口∧
口口口V
口>⑦⑦

口口⑧⑧
口口口口
口口口口
口口⑧⑧
30
口口口口 |①ーーー|
①口<口 |②ーーー|
①口<口 |③ー④ー⑤ー|
口口口口 |ーー⑥ーーー|

口口⑤⑥
②④口⑤
②⑥口③
口口⑤⑥
31
④③⑦⑧ |①ー②ー③ー|
③⑥②⑦ |ーー④ーーー|
①⑧④⑤ |⑤ー⑥ー⑦ー|
④③⑦⑧ |ーー⑧ーーー|
32
④口⑥口 |①ー②ー|
⑦③②⑤ |③④ー⑤|
③⑦⑤口 |⑥ー⑦⑧|
①④口⑥ |ー⑨⑩ー|

口⑧口⑩
口口⑨口
口口口⑨
⑧口⑩口
33
⑤口④口 |①ー②ー|
口③口② |③④ー⑤|
①口③口 |⑥ーーー|
口④口⑤ |ーー⑦ー|

口口口口
>口⑥口
口⑥口<
口口口口

口口口口
口口⑦口
口⑦口口
口口口口
34
>口口① |①ーーー|
口口口口 |ーーーー|
口口口口 |②ーーー|
①<口口 |ーーーー|

口口口口
口口口口
口口口口
②口口口
35
口口口口 |①ーーー|
口口口口 |ーーーー|
①<口口 |②ーーー|
口口口口 |ーーーー|

口口口口
口口口口
②口口口
口口口口
36
口口口口 |①ーーー|
①<口口 |ーーーー|
口口口口 |②ーーー|
口口口口 |ーーーー|

口口口口
②口口口
口口口口
口口口口
37
①<口口 |①ーーー|
口口口口 |ーーーー|
口口口口 |②ーーー|
口口口口 |ーーーー|

②口口口
口口口口
口口口口
口口口口
38
口口口口 |①ーーー|
口口口口 |ーーーー|
口口口口 |②ーーー|
①①<口 |ーーーー|

口口口口
口口口口
口口口口
口②口口
39
口口口口 |①ーーー|
口口口口 |ーーーー|
①①<口 |②ーーー|
口口口口 |③④⑤⑥|

口口口口
口口口⑥
口②④⑤
口口③口
40
口口口口 |①ーーー|
①①<口 |ーーーー|
口口口口 |②ーーー|
口口口口 |③④⑤⑥|

口口口口
口②④⑥
口口③⑤
口口口口
41
①①<口 |①ーーー|
口口口口 |ーーーー|
口口口口 |②③④⑤|
口口口口 |⑥ーーー|

口②②口
口口③④
口⑥⑥⑤
口口口口
42
⑥口④口 |①ー②ー|
口②口口 |③ー④ー|
⑤⑤口口 |⑤ーーー|
①口③口 |⑥ーーー|
43
⑥口④口 |①ー②ー|
②口口口 |③ー④ー|
口⑤⑤③ |⑤ーーー|
口①口口 |⑥ーーー|
44
⑥④口口 |①ー②ー|
②口口口 |③ー④ー|
口口口③ |⑤ーーー|
①⑤⑤口 |⑥ーーー|
45
⑥②口口 |①ー②ー|
④口口③ |③ー④ー|
口口①口 |⑤ーーー|
口口⑤⑤ |⑥ーーー|
46
⑥④口口 |①ー②ー|
④②②⑥ |③ー④ー|
口口口口 |⑤ー⑥ー|
①⑤⑦③ |⑦ー⑧ー|

口口⑧口
口⑧口口
口口口口
口口口口
47
⑥④口口 |①ー②ー|
②⑥②④ |③ー④ー|
口口口口 |⑤ー⑥ー|
①⑤⑦③ |⑦ー⑧ー|

口口⑧⑧
⑧口口口
口口口口
口口口口
48
⑦⑧⑨⑩ |①ー②ー③ー|
口⑥③⑪ |④ー⑤ー⑥ー|
④②⑤① |⑦⑧⑨⑩⑪⑫|
口口口口 |⑬⑭⑮⑯⑰⑱|

口口口口
⑱口口口
⑰口口⑫
⑯⑮⑭⑬
49
口口口口 |①ーーー|
口口①口 |ーーーー|
口口①口 |②ーーー|
口口口口 |ーー③ー|

口口②口
口②V②
口口口口
口口②口

口口口口
口口口口
口口口口
口口③口
50
V②③③ |①②ーー|
口口①口 |③ー④ー|
②∧④④ |⑤ーーー|
口口口口 |⑥ーーー|

口③口口
口⑤口口
③口口口
⑤∧<口

口口口口
口⑥⑥口
口口口口
⑥>∧⑥
51
口口①< |①ーーー|
口口①口 |②ーーー|
口①口口 |③ーーー|
口∧口① |④ー⑤⑥|

口口②V
口口口②
口②口口
口>②口

口口口口
③⑤⑥③
口口口口
④③③④
52
①②③④ |①②③④|
⑤⑩⑧⑥ |ー⑤ーーーー⑥ーーーーー|
①②③④ |⑦ー⑧ーーー|
⑦⑤⑥⑨ |⑨ー⑩ー|
53
④③②① |①②③④|
⑥⑧口⑤ |ー⑤ーーーー⑥ーーーーー|
④③②① |⑦ー⑧ーーー|
口⑥⑤⑦ |⑨ー⑩⑪|

⑪⑩口⑨
口口口口
⑪⑩口⑨
口口口口
54
口口V口 |①ーーー|
③③口① |②ー③ー|
口口①口 |④ーーー|
②②口∧ |⑤ーーー|

口口口口
口口口②
口口②口
口口口口

口口④口
口口口口
口>∧④
口口口口

口⑤⑤口
口口口口
⑤∧<⑤
口口口口
55
口①口口 |①ーーー|
口口口口 |ーー②ー|
①VV口 |③ーーー|
口①①口 |④⑤⑥⑦|

口⑥⑦口
③口口③
④口口⑤
口②②口
56
⑨口口④ |①②③④|
⑤⑧③⑩ |⑤ー⑥⑦|
口②⑦口 |⑧⑨⑩ー|
①⑤⑩⑥ |⑪⑫⑬⑭|

口口口⑭
口口⑬口
口⑫口口
⑪口口口
57
⑤①⑥⑫ |①ー②③|
⑧④口⑦ |④⑤⑥ー|
①⑨③⑥ |⑦ー⑧⑨⑩ー⑪ー|
⑪口⑩② |⑫⑬⑭⑮|

口⑬口口
口口口口
⑮口⑭口
口口口口
58
①口<口 |①ーーー|
口口口口 |②ーーー|
口口口口 |③④⑤⑥|
口>口① |⑦ー⑧⑨|

②口⑥⑦
口口口⑤
⑨口⑦④
口⑧③②
59
③②⑦口 |①②③ー|
①口口⑥ |④⑤⑥⑦|
口③口⑤ |⑧ーーー|
口口④口 |⑨ーーー|

口>口⑧
口口口口
>口⑧口
口口口口

口口口⑨
口口口口
口口⑨口
口口口口
60
②①口口 |①ーーー|
③口①口 |ーーーー|
④①口口 |②③④⑤|
⑤口①口 |⑥⑦⑧⑨|

口口⑥口
口口⑦口
口口⑧口
口口⑨口
61
⑫①⑬⑧ |①②③④|
⑪②⑭⑦ |⑤⑥⑦⑧|
⑩③⑮⑥ |⑨⑩⑪⑫|
⑨④⑯⑤ |⑬⑭⑮⑯|
62
口①口< |①ーーー|
口口口口 |②ーーー|
口①口< |③④⑤⑥|
口口口口 |⑦⑧⑨⑩|

口②⑥⑧
⑦⑤口口
口②④口
⑨③⑨③

口口口口
口口口口
口⑩口口
口口口口
63
④②⑧口 |①②③④|
口⑦①③ |⑤⑥⑦⑧|
口口⑥口 |⑨ーーー|
口⑤口⑤ |⑩ーーー|

口口口口
⑨口<口
⑨口<口
口口口口

口口口口
⑩口口口
⑩口口口
口口口口
64
①口口口 |①ーーー|
口口①口 |ーーーー|
口①口口 |②ーーー|
口口口① |③ー④ー|

口②口口
V口口口
>∧②口
②口口口

口③口口
口口口口
口口③口
③口口口

口口④口
口口口V
口④∧<
口口口④
65
②口①② |ーー①ー|
②⑤⑧② |②ーーー|
④①口⑦ |③ー④ー⑤ー|
口③⑥① |⑥ー⑦ー⑧ー|
66
VVVV |①ーーー|
①口口① |ーーーー|
V①①V |ーーーー|
①口口① |ーーーー|
67
口口口口 |ーーーー|
口口口口 |ーーーー|
口口口口 |ーーーー|
口口口口 |ーーーー|
68
口口口口 |①ーーー|
口口口口 |ーーーー|
口①①口 |ーーーー|
口口口口 |ーーーー|
69
口口口口 |①ーーー|
口口口口 |ーーーー|
口口口口 |ーーーー|
①口口① |ーーーー|
70
口口口口 |①ーーー|
①口口① |ーーーー|
口口口口 |ーーーー|
口口口口 |ーーーー|
最終更新:2024年09月14日 15:13