アットウィキロゴ
BPM:200

1
口口口口 |ーーーー|
口口口口 |ーーーー|
口口口口 |ーーーー|
口口口口 |ーーーー|
2
⑤④口口 |①ー②ー|
③⑥口口 |③ー④ー|
口②⑦口 |⑤ー⑥ー|
①口口⑧ |⑦ー⑧ー|
3
⑤⑥⑦① |①ー②ー|
口口②口 |③ー④ー|
⑧⑨⑩③ |⑤ー⑥ー⑦ー|
口口④口 |⑧ー⑨ー⑩ー|
4
口⑤口④ |①ー②ー|
③口⑥口 |③ー④ー|
口⑦口② |⑤ー⑥ー|
①口⑧口 |⑦ー⑧ー|
5
口口口④ |①ー②ー|
③⑤⑥⑦ |③ー④ー|
口口口② |⑤ー⑥ー⑦ー|
①⑧⑨⑩ |⑧ー⑨ー⑩ー|
6
⑤④口口 |①ー②ー|
③⑥口口 |③ー④ー|
口②⑦口 |⑤ー⑥ー|
①口口⑧ |⑦ー⑧ー|
7
⑤⑥⑦① |①ー②ー|
口口②口 |③ー④ー|
⑧⑨⑩③ |⑤ー⑥ー⑦ー|
口口④口 |⑧ー⑨ー⑩ー|
8
③口口④ |①ー②ー|
①⑤⑤② |ーー③ー|
口⑤⑤口 |ーー④ー|
①③④② |ーー⑤ー|
9
③①口口 |ーー①ー|
②⑦口④ |②ー③ー|
⑤口口口 |④ー⑤ー|
口③⑥口 |⑥ー⑦ー|
10
⑤⑤①① |①ー②③|
②口口⑥ |④ー⑤ー|
口③⑦口 |ーー⑥⑦|
④口口⑧ |⑧ー⑨ー|

口口⑨⑨
口口口口
口口口口
口口口口
11
口⑥口口 |ーー①ー|
口③口④ |②ー③ー|
口②⑤口 |ーー④ー|
口①口口 |⑤ー⑥ー|
12
口口④① |①ー②ー|
⑤⑥口口 |③ー④ー|
②口口口 |ーーー⑤⑥ーーー|
⑦口口③ |ーー⑦ー|
13
口③口口 |ーー①ー|
⑦口②④ |②ー③ー|
口口⑤① |④ー⑤ー|
口⑥口口 |⑥ー⑦ー|
14
口④⑧口 |①ー②③|
口③⑥⑧ |④ー⑤-|
⑦②口⑤ |ーー⑥ー|
口口⑤① |⑦ー⑧ー|
15
②①口口 |ーー①ー|
口③⑥口 |②ー③ー|
口口④⑦ |④ー⑤ー|
口⑤口口 |⑥ー⑦ー|
16
⑤⑤口① |①ー②③|
②口口⑥ |④ー⑤ー|
口③⑦口 |ーー⑥⑦|
④口口⑧ |⑧ー⑨ー|

口口⑨⑨
口口口口
口口口口
口口口口
17
口口口口 |ーー①ー|
①⑤②④ |②ー③ー|
⑤①口② |④ー⑤ー|
口③④口 |ーーーー|
18
⑤⑤①① |①ー②③|
②口口⑥ |④ー⑤ー|
口③⑦口 |ーー⑥⑦|
④口口⑧ |⑧ー⑨ー|

口口⑨⑨
口口口口
口口口口
口口口口
19
口⑥口口 |ーー①ー|
口③口④ |②ー③ー|
口②⑤口 |ーー④ー|
口①口口 |⑤ー⑥ー|
20
口口④① |①ー②ー|
⑤⑥口口 |③ー④ー|
②口口口 |ーーー⑤⑥ーーー|
⑦口口③ |ーー⑦ー|
21
口③口口 |ーー①ー|
⑦口②④ |②ー③ー|
口口⑤① |④ー⑤ー|
口⑥口口 |⑥ー⑦ー|
22
口④⑧口 |①ー②③|
口③⑥⑧ |④ー⑤-|
⑦②口⑤ |ーー⑥ー|
口口⑤① |⑦ー⑧ー|
23
②①口口 |ーー①ー|
口③⑥口 |②ー③ー|
口口④⑦ |④ー⑤ー|
口⑤口口 |⑥ー⑦ー|
24
⑤⑤口① |①ー②③|
②口口⑥ |④ー⑤ー|
口③⑦口 |ーー⑥⑦|
④口口⑧ |⑧ー⑨ー|

口口⑨⑨
口口口口
口口口口
口口口口
25
口口口口 |ーー①ー|
①⑤②④ |②ー③ー|
⑤①口② |④ー⑤ー|
口③④口 |ーーーー|
26
⑦⑦口① |①ー②③|
⑦口⑤⑥ |④⑤⑥ー|
口③④⑧ |ーー⑦ー|
②口⑧⑧ |ーー⑧ー|
27
③⑤②② |ーー①ー|
⑤③④② |ーー②ー|
①④口口 |ーー③ー|
①①口口 |④ー⑤ー|
28
⑤⑤③③ |ーー①ー|
⑤口口③ |ーー②ー|
②口④① |ーー③ー|
②②①① |④ー⑤ー|
29
口口③口 |ーー①ー|
口④①③ |ーー②ー|
⑤②④① |ーー③ー|
口⑤②口 |④ー⑤ー|
30
②③⑦口 |①ー②③|
⑧口①⑦ |④⑤⑥ー|
口④口⑥ |ーー⑦ー|
口口⑤① |⑧ー⑨ー|

口口口口
口口口口
口口⑨口
口⑨口⑨
31
①②④② |ーー①ー|
⑤①②④ |ーー②ー|
①③口口 |ーー③ー|
③⑤口口 |④ー⑤ー|
32
④口口③ |ーー①ー|
口②⑤口 |②ー③ー|
⑥口③口 |ーー④ー|
口⑥口① |⑤ー⑥ー|
33
⑦⑦④口 |ーー①②|
③⑤口口 |③ー④ー|
口②口⑥ |ーー⑤⑥|
口口①口 |⑦ーーー|
34
⑦⑦口① |①ー②③|
⑦口⑤⑥ |④⑤⑥ー|
口③④⑧ |ーー⑦ー|
②口⑧⑧ |ーー⑧ー|
35
③⑤②② |ーー①ー|
⑤③④② |ーー②ー|
①④口口 |ーー③ー|
①①口口 |④ー⑤ー|
36
⑤⑤③③ |ーー①ー|
⑤口口③ |ーー②ー|
②口④① |ーー③ー|
②②①① |④ー⑤ー|
37
口口③口 |ーー①ー|
口④①③ |ーー②ー|
⑤②④① |ーー③ー|
口⑤②口 |④ー⑤ー|
38
②③⑦口 |①ー②③|
⑧口①⑦ |④⑤⑥ー|
口④口⑥ |ーー⑦ー|
口口⑤① |⑧ー⑨ー|

口口口口
口口口口
口口⑨口
口⑨口⑨
39
①②④② |ーー①ー|
⑤①②④ |ーー②ー|
①③口口 |ーー③ー|
③⑤口口 |④ー⑤ー|
40
④口口③ |ーー①ー|
口②⑤口 |②ー③ー|
⑥口③口 |ーー④ー|
口⑥口① |⑤ー⑥ー|
41
⑦⑦④口 |ーー①②|
③⑤口口 |③ー④ー|
口②口⑥ |ーー⑤⑥|
口口①口 |⑦ーーー|
42
⑧口口② |①ー②ー|
口⑦③口 |③ー④ー|
口④⑥口 |⑤ー⑥ー|
口①①⑤ |⑦ー⑧ー|
43
口口⑤④ |①ー②ー|
口⑥③口 |③ーー④⑤ーーー|
②口⑦口 |ーー⑥ー|
⑧①口口 |⑦ー⑧ー|
44
口①口口 |①ー②ー|
口⑦③⑤ |③ー④ー|
口②⑥口 |ーー⑤ー|
口口④口 |⑥ー⑦ー|
45
口③⑦① |ーー①ー|
⑥口②口 |②ー③ー|
口⑤口口 |④ー⑤ー|
④口口口 |⑥ー⑦ー|
46
①口⑦口 |ーー①ー|
口②③⑥ |②ー③ー|
口口⑤口 |④ー⑤ー|
口口口④ |⑥ー⑦ー|
47
④口口⑤ |①ー②ー|
③口⑥口 |③ー④ー|
⑦②口口 |ーー⑤ー|
口①口口 |⑥ー⑦ー|
48
口④口口 |①ー②③|
⑦③口⑧ |④ー⑤ー|
口②口⑧ |ーー⑥ー|
口⑥⑤① |⑦ー⑧ー|
49
④口口⑤ |ーー①ー|
口①②口 |②ー③ー|
口口口口 |④ー⑤ー|
④口③⑤ |ーーーー|
50
口口口口 |①ー②ー|
①②口⑥ |③ー④ー|
③④⑦口 |⑤ー⑥⑦|
⑤⑧口口 |⑧ーーー|
51
②口口① |①ーーー|
口⑤④⑥ |②ーーー|
⑤口⑥④ |③ーーー|
③口口口 |④ー⑤ー⑥ー|
52
口口口② |①ーーー|
①③口口 |ーーーー|
口①口口 |②ーーー|
口口口口 |③ーーー|
53
口③口口 |①ーーー|
③口④口 |②ーーー|
口④①⑤ |③ー④ー|
②口⑤口 |⑤ーーー|
54
口口⑪⑩ |①ー②ー|
⑨③口④ |③ー④ー|
⑦⑧②口 |⑤⑥⑦⑧|
⑤⑥口① |⑨ーー⑩⑪ーーー|
55
③口口口 |ーー①ー|
⑧②⑤⑥ |②ー③ー|
口⑦④口 |④⑤⑥⑦ーー|
口⑨①口 |⑧ー⑨ー|
56
口①口④ |①ー②ー|
⑤口⑥口 |③ー④ー|
③口⑥④ |ーー⑤ー|
⑤口口② |ーー⑥ー|
57
⑤①④口 |ーー①ー|
口③口口 |②ー③ー|
口口口口 |④ー⑤ー|
口⑤②④ |ーーーー|
58
⑩⑪口④ |①ー②ー|
①③⑨口 |③ー④ー|
⑤⑥②⑧ |⑤⑥⑦⑧|
①⑦口口 |⑨ーー⑩⑪ーーー|
59
口口④⑤ |ーー①ー|
口③⑧⑥ |②ー③ー|
口⑨②口 |④⑤⑥⑦ーー|
⑦口口① |⑧ー⑨ー|
60
口①⑥口 |①ー②ー|
②④口⑥ |③ー④ー|
口口③口 |ーー⑤ー|
口口口⑤ |ーー⑥ー|
61
⑧口口⑦ |ーー①②|
①⑤④口 |③④⑤⑥|
⑥②口③ |⑦ー⑧ー|
口⑧⑦口 |ーーーー|
62
⑬②③口 |①②③④|
①⑨④⑧ |⑤⑥⑦⑧|
口⑥⑦⑩ |⑨ー⑩⑪|
⑤口⑪⑫ |⑫ー⑬ー|
63
⑫⑦①口 |ーー①ー|
③口⑩⑤ |②ー③ー|
⑧⑪⑥⑨ |⑤⑥⑦⑧|
口②口口 |⑨⑩⑪⑫|
64
口⑩⑥⑤ |①②③④|
⑧⑦⑭⑬ |⑤⑥⑦⑧|
⑫口⑨⑪ |⑨⑩⑪⑫|
④③②① |ーーー⑬⑭ーーー|
65
④口口⑤ |ーー①ー|
口②口口 |②ー③ー|
口口③口 |④ー⑤ー|
④①口⑤ |ーーーー|
66
⑧⑦②口 |①②③④|
⑩③⑥① |⑤⑥⑦⑧|
④⑪口⑤ |⑨ー⑩⑪|
⑬口⑫⑨ |⑫ー⑬ー|
67
口②口③ |ーー①ー|
口⑪⑦① |②ー③ー|
⑤⑥⑩⑨ |④⑤⑥⑦|
口④⑧口 |⑧⑨⑩⑪|
68
⑤③①③ |①ー②ー|
②口⑥① |③ー④ー|
⑤⑥口口 |ーー⑤ー|
②④口④ |ーー⑥ー|
69
②口口① |ーーーー|
口口口口 |ーーーー|
口口口口 |①ー②ー|
②口口① |ーーーー|
70
口口口口 |①ーーー|
口口口口 |ーーーー|
口口口口 |ーーーー|
口①①口 |ーーーー|
71
①①①① |ーーーー|
①口口① |ーーーー|
口口口口 |ーーーー|
口口口口 |①ーーー|
72
⑦口⑦口 |①ー②③|
⑦⑤②口 |④ー⑤ー|
⑤口③⑥ |ーー⑥ー|
①①④⑥ |ーー⑦ー|
73
口⑤口① |ーー①ー|
口口④口 |②ー③ー|
口②口⑥ |④ー⑤ー|
⑦⑧③口 |⑥ーー⑦⑧ーーー|
74
⑥口口⑤ |ーー①ー|
口③④① |②③④⑤|
②口⑩⑨ |⑥ー⑦ー|
⑧口口⑦ |⑧ーー⑨⑩ーーー|
75
⑥④⑤口 |ー①②③|
口⑦⑩③ |④⑤⑥⑦|
⑪①口口 |⑧ー⑨ー|
口⑨②⑧ |⑩ー⑪ー|
76
⑦③⑥① |①ー②③|
⑤⑪⑫④ |④⑤⑥⑦|
⑭⑮②⑧ |⑧⑨⑩⑪|
口⑬⑨⑩ |⑫⑬⑭⑮|
77
⑥②⑤① |①ー②ー③ー|
④⑧⑨③ |④ー⑤ー⑥ー|
⑩口①⑦ |⑦ー⑧ー⑨ー|
④⑩⑦口 |⑩ーーー|
78
⑤⑤口① |①ー②③|
②口口⑥ |④ー⑤ー|
口③⑦口 |ーー⑥⑦|
④口口⑧ |⑧ー⑨ー|

口口⑨⑨
口口口口
口口口口
口口口口
79
口口口口 |ーー①ー|
①⑤②④ |②ー③ー|
⑤①口② |④ー⑤ー|
口③④口 |ーーーー|
80
⑤⑤①① |①ー②③|
②口口⑥ |④ー⑤ー|
口③⑦口 |ーー⑥⑦|
④口口⑧ |⑧ー⑨ー|

口口⑨⑨
口口口口
口口口口
口口口口
81
口⑥口口 |ーー①ー|
口③口④ |②ー③ー|
口②⑤口 |ーー④ー|
口①口口 |⑤ー⑥ー|
82
口口④① |①ー②ー|
⑤⑥口口 |③ー④ー|
②口口口 |ーーー⑤⑥ーーー|
⑦口口③ |ーー⑦ー|
83
口③口口 |ーー①ー|
⑦口②④ |②ー③ー|
口口⑤① |④ー⑤ー|
口⑥口口 |⑥ー⑦ー|
84
口④⑧口 |①ー②③|
口③⑥⑧ |④ー⑤-|
⑦②口⑤ |ーー⑥ー|
口口⑤① |⑦ー⑧ー|
85
②①口口 |ーー①ー|
口③⑥口 |②ー③ー|
口口④⑦ |④ー⑤ー|
口⑤口口 |⑥ー⑦ー|
86
⑤⑤口① |①ー②③|
②口口⑥ |④ー⑤ー|
口③⑦口 |ーー⑥⑦|
④口口⑧ |⑧ー⑨ー|

口口⑨⑨
口口口口
口口口口
口口口口
87
口口口口 |ーー①ー|
①⑤②④ |②ー③ー|
⑤①口② |④ー⑤ー|
口③④口 |ーーーー|
88
口④口口 |①ー②ー|
③⑤口口 |③ー④ー|
口②口⑥ |ーー⑤ー|
①⑦口口 |⑥ー⑦ー|
89
口口④口 |①ー②ー|
口口⑤③ |③ー④ー|
⑥口②口 |ーー⑤ー|
口口⑦① |⑥ー⑦ー|
90
⑤④口口 |①ー②ー|
③⑤口口 |③ー④ー|
口②⑥口 |ーー⑤ー|
①口口⑥ |ーー⑥ー|
9
口口⑧④ |①ー②ー|
口口口口 |③ー④ー|
⑤⑥⑦口 |⑤ー⑥ー|
①②③口 |⑦ー⑧ー|
92
口④口口 |①ー②ー|
①②③⑤ |③ー④ー|
⑥口口口 |ーー⑤ー|
口口口⑦ |⑥ー⑦ー|
93
口口口④ |①ー②ー|
⑤口③口 |③ー④ー|
口②口口 |ーーーー|
①口口口 |⑤ーーー|
94
口口口口 |①ー②ー|
口口④口 |③ー④ー|
⑥⑦口口 |ーー⑤ー|
⑤③②① |⑥ー⑦ー|
95
口口口口 |①ー②ー|
口④口口 |③ー④ー|
口口③② |⑤ーーー|
口口⑤① |ーーーー|
96
①口口< |①ーーー|
①口口< |ーーーー|
口口口口 |ーーーー|
口口口口 |ーーーー|
97
口口口口 |ーーーー|
口口口口 |ーーーー|
口口口口 |ーーーー|
口口口口 |ーーーー|
98
口口口口 |ーーーー|
口口口口 |ーーーー|
口口口口 |ーーーー|
口口口口 |ーーーー|
99
口口口口 |ーーーー|
口口口口 |ーーーー|
口口口口 |ーーーー|
口口口口 |ーーーー|
100
口口口口 |ーーーー|
口口口口 |ーーーー|
口口口口 |ーーーー|
口口口口 |ーーーー|
101
①口口口 |①ーーー|
①口口口 |ーーーー|
口口口口 |ーーーー|
口口口口 |ーーーー|
最終更新:2022年11月16日 08:22