アットウィキロゴ
BPM:212
1
□□□□ |①---|
□□□□ |----|
□□①□ |----|
□□□□ |----|
2
□□□□ |①---|
□□□□ |----|
①□□< |----|
□①□□ |----|
3
□□□□ |----|
□□□□ |----|
□□□□ |----|
□□□□ |----|
4
□□①□ |①---|
□□□① |----|
1□□□ |----|
□□∧□ |----|
5
□□□□ |----|
□□□□ |----|
□①①□ |①---|
□□□□ |----|
6
□①1□ |①---|
①□□< |----|
□□□□ |----|
□□□□ |----|
7
□□□□ |----|
□□□□ |----|
□□□□ |----|
□□□□ |----|
8
□①①□ |①---|
1②□② |----|
□□③□ |②---|
□□□□ |③---|
9
□□□□ |①---|
□②②□ |----|
□□□□ |②---|
□①□① |----|
10
□□②② |①---|
⑥④□⑤ |②---|
①□□□ |③-④-|
□□③□ |⑤-⑥-|
11
⑨⑧⑦⑥ |①-②-|
⑬⑫⑪⑩ |③-④⑤|
□②□③ |⑥⑦⑧⑨|
④⑤□① |⑩⑪⑫⑬|
12
⑥□③□ |①---|
□□□⑤ |②---|
④②②□ |③-④-|
□□□① |⑤-⑥-|
13
□④⑤① |①-②-|
⑥⑦⑧⑨ |③-④⑤|
⑩⑪⑫⑬ |⑥⑦⑧⑨|
②□③□ |⑩⑪⑫⑬|
14
③□□④ |①-②-|
⑤□□⑧ |③-④-|
□□□□ |⑤-⑥-|
⑦①⑥② |⑦-⑧-|
15
③①②□ |①-②-|
□⑤④□ |③-④⑤|
⑨⑧⑦⑥ |⑥⑦⑧⑨|
⑬⑫⑪⑩ |⑩⑪⑫⑬|
16
□⑥③① |①-②-|
②④□□ |③-④-|
□□⑤□ |⑤-⑥-|
□⑧⑦□ |⑦-⑧-|
17
②⑩⑨① |①②③④|
④⑫⑪③ |⑤⑥⑦⑧|
⑥⑭⑬⑤ |⑨⑩⑪⑫|
⑧⑯⑮⑦ |⑬⑭⑮⑯|
18
>□□① |①---|
□□□□ |----|
□□□□ |----|
□□□□ |②---|

□□□2
□□□□
□②②□
□□□□
19
⑦⑧□□ |①-②-|
③⑥⑤④ |③-④-|
②□□□ |⑤-⑥-|
①□□□ |⑦-⑧-|
20
□□①□ |①-②-|
□□□④ |③-④-|
□⑦⑧③ |⑤-⑥-|
□⑤⑥② |⑦-⑧-|
21
□③②① |①-②-|
⑦□□⑥ |③-④-|
⑧□□⑤ |⑤-⑥-|
□□□④ |⑦-⑧-|
22
⑤□⑥□ |①-②-|
□□②□ |③-④-|
□□③□ |⑤-⑥-|
①⑦④⑧ |⑦-⑧-|
23
⑦⑧□□ |①-②-|
③⑥⑤④ |③-④-|
②□□□ |⑤-⑥-|
①□□□ |⑦-⑧-|
24
□□①□ |①-②-|
□□□④ |③-④-|
□⑦⑧③ |⑤-⑥-|
□⑤⑥② |⑦-⑧-|
25
①②③④ |①②③④|
⑤⑤⑩⑩ |⑤---|
□□□□ |⑥⑦⑧⑨|
⑨⑧⑦⑥ |⑩---|
26
⑨⑧⑦⑥ |①②③④|
⑤⑤□□ |⑤---|
①②③④ |⑥⑦⑧⑨|
⑬⑫⑪⑩ |⑩⑪⑫⑬|
27
⑥□⑦⑦ |①-②-|
③□□① |③-④-|
③⑤②④ |⑤-⑥-|
⑧□□□ |⑦-⑧-|
28
□□□□ |①-②-|
③⑥⑧② |③-④-|
⑤⑤⑦⑦ |⑤-⑥-|
□③④① |⑦-⑧-|
29
①②⑥⑤ |①-②-|
③□□⑦ |③-④-|
□□□□ |⑤-⑥-|
③⑧④⑦ |⑦-⑧-|
30
③②□⑦ |①-②-|
⑤①⑧□ |③-④-|
③⑥□⑦ |⑤-⑥-|
⑤□④□ |⑦-⑧-|
31
③③⑦⑦ |①-②-|
□②□⑧ |③-④-|
④□⑥□ |⑤-⑥-|
□①⑤□ |⑦-⑧-|
32
□③□⑦ |①-②-|
①□⑤□ |③-④-|
□④□⑧ |⑤-⑥-|
②□⑥□ |⑦-⑧-|
33
④□②□ |①---|
□①④② |②---|
②④□□ |③---|
③②□④ |④---|
34
□②③④ |①---|
④□□② |②---|
②□①④ |③---|
④□②□ |④---|
35
⑦⑦□□ |①-②-③-|
□①②□ |④-⑤-⑥-|
⑦③④□ |⑦---|
□⑤⑥⑧ |⑧---|
36
□□⑦⑦ |①-②-③-|
□②①□ |④-⑤-⑥-|
□④③⑦ |⑦---|
⑧⑥⑤□ |⑧---|
37
□□⑦⑦ |①-②-③-|
①②③□ |④-⑤-⑥-|
⑥⑤④⑦ |⑦---|
□⑧⑧□ |⑧---|
38
□①□□ |①---②-|
⑤③④⑤ |--③-④-|
⑤□②⑤ |⑤---|
③□⑥④ |⑥---|
39
③⑤□④ |①-②-③-|
⑨□⑥⑩ |④-⑤-⑥-|
□⑪②⑧ |⑦-⑧-⑨-|
⑦①□⑫ |⑩-⑪-⑫-|
40
⑥□□⑦ |①-②-③-|
⑩⑤⑧□ |④-⑤-⑥-|
④⑪①⑨ |⑦-⑧-⑨-|
⑫③②□ |⑩-⑪-⑫-|
41
□①②□ |①-②-③-|
□⑥□③ |④-⑤-⑥-|
⑦□⑤□ |⑦-⑧-⑨-|
□⑧⑨④ |⑩-⑪-⑫-|

□⑫□□
□□⑪□
□□□⑩
□□□□
42
①□□② |①---|
⑤⑤⑨⑨ |②---|
④④⑧⑧ |③-④-⑤-|
③③⑦⑦ |⑦-⑧-⑨-|
43
①②③□ |①②③---|
□□⑤□ |----|
□④□□ |----|
□□□□ |④-⑤-|
44
∨□□□ |①---|
□□□□ |----|
□□□□ |----|
①□①□ |②-③-|

□□□□
□③□□
□□②□
2□□□
45
□□□□ |①---|
②□②∨ |----|
□③□□ |②---|
∧①□① |③---|

□□□□
□□□□
□□□□
□□□2
46
②□∨□ |①---|
□③□□ |----|
□□□□ |----|
①□①□ |②-③-|

□□□□
1□□□
□□□□
□□2□
47
∨□②□ |①---|
□□□② |----|
①□①□ |②---|
□□□□ |--③④|

□□□□
③□□□
2④□□
□□□□
48
∨③□② |①---|
□□③□ |----|
□□②□ |②---|
①□□□ |③---|

□□□□
□□□□
□□□□
2□□□
49
①□□□ |①---|
④□□② |②---|
□①③④ |③---|
□③②□ |④---|
50
⑨⑦⑩④ |①②③④|
⑬①②⑧ |⑤⑥⑦⑧|
⑪⑤⑭⑯ |⑨⑩⑪⑫|
③⑮⑥⑫ |⑬⑭⑮⑯|
51
④③⑤③ |①---|
□①①□ |②-③-|
④□⑤□ |--④-|
②□②□ |⑤---|
52
□□□③ |①-②-|
②□①□ |--③-|
□②□① |④⑤⑥⑦|
③□□□ |⑧⑨⑩⑪|

□④⑪□
□⑥□⑨
⑧□⑦□
□⑩⑤□
53
①□□④ |①---|
②⑤③□ |②-③-|
□②④③ |--④-|
⑤□□① |⑤---|
54
②⑨□□ |①-②-|
③⑧⑥① |--③-|
②⑦⑤③ |④-⑤-⑥-|
□□④① |⑦-⑧-⑨-|
55
□□③① |①---|
□□④③ |②-③-|
②⑤□④ |--④-|
①②⑤□ |⑤---|
56
②③④② |①-②-|
⑤⑥⑦⑧ |--③④|
⑨⑩⑪⑫ |⑤⑥⑦⑧|
①□□① |⑨⑩⑪⑫|
57
②④⑤③ |①---|
④□□⑤ |②-③-|
□□□□ |--④-|
②①①③ |⑤---|
58
⑤□□⑥ |①②③④|
□①②□ |⑤⑥⑦⑧|
□③④□ |⑨---|
⑦□□⑧ |----|

□∨∨□
□□□□
□□□□
□⑨⑨□
59
□□□□ |①---|
□①①□ |②③④⑤|
□□□□ |⑥⑦⑧⑨|
□11□ |⑩⑪⑫⑬|

⑦⑤④⑥
⑪□□⑩
③⑨⑧②
⑬□□⑫
60
⑩⑧⑦⑨ |①②③④|
⑭②①⑬ |⑤⑥⑦⑧|
⑥⑫⑪⑤ |⑨⑩⑪⑫|
⑯④③⑮ |⑬⑭⑮⑯|
61
⑥④⑤⑦ |①---|
□□①□ |②③④⑤|
②⑩⑪③ |⑥⑦⑧⑨|
⑫⑧⑨⑬ |⑩⑪⑫⑬|
62
⑨⑦⑧⑩ |①②③④|
①②③④ |⑤⑥⑦⑧|
⑤⑬⑭⑥ |⑨⑩⑪⑫|
⑮⑪⑫⑯ |⑬⑭⑮⑯|
63
⑤⑦④⑥ |①---|
①⑪⑧□ |②③④⑤|
③⑨⑫② |⑥⑦⑧⑨|
⑬□⑩□ |⑩⑪⑫⑬|
64
⑧⑩⑦⑨ |①②③④|
④⑭⑪① |⑤⑥⑦⑧|
⑥⑫⑮⑤ |⑨⑩⑪⑫|
⑯②⑬③ |⑬⑭⑮⑯|
65
⑥⑧⑦⑨ |①---|
□□□① |②③④⑤|
④□□⑤ |⑥⑦⑧⑨|
□②□③ |⑩⑪⑫⑬|

□□□□
⑩⑫⑪⑬
□□□□
□□□□
66
⑨⑩⑪⑫ |①②③④|
⑬⑭⑮⑯ |⑤⑥⑦⑧|
⑦③②⑧ |⑨⑩⑪⑫|
①⑤④⑥ |⑬⑭⑮⑯|
67
□□□□ |①---|
□□□□ |----|
□□□□ |----|
①□□< |----|
68
□□□□ |----|
⑧⑦⑥⑤ |----|
④③②① |①②③④|
5□□□ |⑤⑥⑦⑧|
69
>□□① |①---|
□□□□ |----|
□□□□ |----|
□□□□ |----|
70
□□□□ |①②③④|
⑦③④⑧ |⑤⑥⑦⑧|
⑤①②⑥ |⑨---|
⑨⑨□□ |⑩---|

□□□⑩
□□□□
□□□□
□□□□
71
①①□□ |①---|
□□□□ |----|
□□□□ |----|
∧∧□□ |----|
72
□□□□ |①-②-|
④②①③ |③-④-|
⑧⑦⑥⑤ |⑤-⑥-|
⑧⑦⑥⑤ |⑦-⑧-|

77□□
□□□□
□□□□
□□□□
73
□□□① |①---|
□□□□ |----|
□□□□ |----|
□□□∧ |----|
74
⑬⑨⑩□ |①②③④|
⑬①②⑥ |⑤⑥⑦⑧|
⑪⑤⑫④ |⑨⑩⑪⑫|
③⑦□⑧ |⑬---|

□□□1
□□□□
□□□□
□□□□
75
□□□□ |--①②|
□②⑤□ |③-④⑤|
□□∨∨ |⑥-⑦⑧|
①④③⑥ |⑨-⑩-|

⑩⑧□□
□□∨□
⑦□⑨□
□□□□

□□□□
□□□□
□□⑩□
□□47
76
□⑧⑦⑥ |①-②-|
④□□③ |③-④-|
□①□② |⑤---⑥⑦|
□⑤□□ |⑧---|
77
□□□□ |--①②|
□②⑤□ |③-④⑤|
∨∨□□ |⑥-⑦⑧|
③⑥①④ |⑨-⑩-|

□⑧□⑩
∨□□□
⑨□⑦□
□□□□

□□□□
□□□□
⑩□□□
47□□
78
①□□□ |①---|
③□□□ |②-③-|
□□□□ |④⑤⑥⑦|
□□②□ |⑧-⑨-|

□□□□
□□⑤④
□□⑦⑥
□□>⑧

□□□□
□□□□
□□□□
□□□9
79
⑧⑤∨⑨ |--①②|
④□⑥□ |③-④⑤|
□②∨□ |⑥-⑦-|
①⑦③□ |⑧-⑨-|

□□□□
□□7□
□□□□
□□4□
80
□□□□ |①②③-|
□③□① |④-⑤⑥|
□∧②□ |⑦-⑧-|
④□□□ |⑨⑩⑪-|

□⑩∨□
⑨□⑪□
□⑦□⑤
□∧⑥⑧

□□□□
□4□□
□8□□
□□□□
81
③□□④ |①②③④|
□□1⑦ |⑤-⑥-|
⑤⑨②⑥ |⑦-⑧⑨|
⑧①⑩□ |⑩-⑪⑫| /analyserの仕様(?)でうまく読めなかったのでここだけホールド終点の書く位置を変えてます/

□□□□
□□⑫□
□□□□
□□□⑪
82
④□②□ |①-②③|
□③□□ |④-⑤-|
□>□⑤ |⑥-⑦⑧|
□①□□ |⑨⑩⑪-|

□⑧□⑦
□□□⑨
□⑩□6
□□□⑪
83
⑤□□□ |①②③④|
③□④□ |⑤-⑥⑦|
①□②□ |⑧-⑨⑩|
□□□□ |⑪-⑫-|

□□□□
□⑦□□
∨□□□
⑧□⑥□

□□⑩⑫
□∨□□
□⑪□⑨
□□□□

□□□□
□□□□
□⑫□□
9□□□
84
⑥⑦⑧□ |①-②-|
③□□④ |③-④-|
②□①□ |⑤---⑥⑦|
□□⑤□ |⑧---|
85
□□□□ |--①②|
□⑤②□ |③-④⑤|
□□∨∨ |⑥-⑦⑧|
④①⑥③ |⑨-⑩-|

⑩□⑧□
□□□∨
□⑦□⑨
□□□□

□□□□
□□□□
□□□⑩
□□74
86
□□□① |①---|
□□□③ |②-③-|
□□□□ |④⑤⑥⑦|
□②□□ |⑧-⑨-|

□□□□
④⑤□□
⑥⑦□□
⑧<□□

□□□□
□□□□
□□□□
9□□□
87
□∨⑤□ |--①②|
□⑥□④ |③-④⑤|
□∨②□ |⑥-⑦-|
□③□① |⑧-⑨-|

⑨□□⑧
□□□□
□□□□
□□⑦□

□□□□
□7□□
□□□□
□4□□
88
□□□□ |①②③-|
①□③□ |④-⑤⑥|
□②∧□ |⑦-⑧-|
□□□④ |⑨⑩⑪-|

□∨⑩□
□⑪□⑨
⑤□⑦□
⑧⑥∧□

□□□□
□□4□
□□8□
□□□□
89
④⑦⑬③ |①②③④|
⑥□⑧⑫ |⑤-⑥⑦|
□②⑩⑤ |⑧-⑨⑩|
□⑪①⑨ |⑪-⑫⑬|

□□□□
□1□□
□□□□
□□□□
90
②⑨□⑤ |①-②③|
⑥①⑪□ |④⑤⑥⑦|
□⑧□③ |⑧-⑨-|
④⑫⑦⑩ |⑩⑪⑫-|
91
□□②② |①---|
□□□□ |②---|
①□□< |③-④-|
□□□□ |⑤-⑥-|

□□□□
□③□⑥
□□④□
□□□⑤
92
⑨⑧⑦⑥ |①-②-|
⑩⑪⑫⑬ |③-④⑤|
□①□② |⑥⑦⑧⑨|
④⑤③□ |⑩⑪⑫⑬|

□□□□
□□□□
1□□□
□□□□
93
⑥□□□ |①---|
□□□□ |②---|
①④②② |③-④-|
③□⑤□ |⑤-⑥-|
94
□□□② |①-②-|
□□□□ |③-④⑤|
①□□□ |⑥⑦⑧⑨|
□□□③ |⑩⑪⑫⑬|

□④⑤□
⑥⑦⑧⑨
⑬⑫⑪⑩
□□□□
95
□④□③ |①-②-|
⑦□□⑥ |③-④-|
□□□□ |⑤-⑥-|
⑤②①⑧ |⑦-⑧-|
96
②□①③ |①-②-|
□④⑤□ |③-④⑤|
⑨⑧⑦⑥ |⑥⑦⑧⑨|
⑩⑪⑫⑬ |⑩⑪⑫⑬|
97
□③□④ |①-②-|
①⑤□② |③-④-|
□□□⑥ |⑤-⑥-|
□⑦□⑧ |⑦-⑧-|
98
①⑨②⑬ |①②③④|
⑦⑩⑧⑭ |⑤⑥⑦⑧|
③⑪④⑮ |⑨⑩⑪⑫|
⑤⑫⑥⑯ |⑬⑭⑮⑯|
99
①④②□ |①---|
□□□④ |②---|
②□③□ |③---|
□□□□ |④---|
100
□□②⑫ |①---|
②①⑪⑧ |②-③④|
□⑩⑦⑤ |⑤⑥⑦⑧|
⑨⑥④③ |⑨⑩⑪⑫|
101
①□②□ |①---|
②④□□ |②---|
□□□④ |③---|
□□③□ |④---|
102
①□②□ |①---|
□□□② |②-③④|
□□□□ |⑤⑥⑦⑧|
□□□□ |⑨⑩⑪⑫|

⑫□□□
⑧⑪□□
⑤⑦⑩□
③④⑥⑨
103
□②□① |①---|
□□④② |②---|
④□□□ |③---|
□③□□ |④---|
104
□②□① |①---|
②□□□ |②-③④|
□□□□ |⑤⑥⑦⑧|
□□□□ |⑨⑩⑪⑫|

□□□⑫
□□⑪⑧
□⑩⑦⑤
⑨⑥④③
105
①⑤②□ |①-②-|
□□□□ |③-④-|
③□⑥□ |⑤-⑥-|
⑦□④⑧ |⑦-⑧-|
106
⑭⑩⑯④ |①②③④|
⑥②⑧③ |⑤⑥⑦⑧|
⑨①⑫⑦ |⑨⑩⑪⑫|
⑬⑤⑪⑮ |⑬⑭⑮⑯|
107
⑬⑨⑮③ |①②③④|
⑤①⑦④ |⑤⑥⑦⑧|
⑩②⑪⑧ |⑨⑩⑪⑫|
⑭⑥⑫⑯ |⑬⑭⑮⑯|
108
□∨□□ |----|
①□①□ |----|
□①□□ |①---|
∧□∧□ |----|

□□□□
□①□<
□□□□
□①□<
109
□□□□ |----|
□□□□ |----|
□□□□ |----|
□□□□ |----|
110
□□□□ |----|
□□□□ |----|
□□□□ |----|
□□□□ |----|
111
□□□□ |----|
□□□□ |----|
□□□□ |----|
□□□□ |----|
112
□□□□ |①---|
111□ |----|
□1□□ |----|
□1□□ |----|
最終更新:2024年09月14日 15:10