アットウィキロゴ
satfinal
RAM

BASIC

Level: 3
BPM: 180
Notes: 281

1
口口口口 |----|
口口口口 |----|
口口口口 |----|
口口口口 |----|
2
口口口口 |----|
口口口口 |----|
口口口口 |----|
口口口口 |----|
3
①口①口 |①---|
口口口口 |----|
口口口口 |----|
口口口口 |----|
4
口口口口 |①---|
口①口① |----|
口口口口 |----|
口口口口 |----|
5
口口口口 |①---|
口口口口 |----|
①口①口 |----|
口口口口 |----|
6
口口口口 |①---|
口口口口 |----|
口口口口 |----|
口①口① |----|
7
口①口① |①---|
口口口口 |----|
口口口口 |----|
口口口口 |----|
8
口口口口 |①---|
①口①口 |----|
口口口口 |----|
口口口口 |----|
9
口口口口 |①---|
口口口口 |----|
口①口① |----|
口口口口 |----|
10
口口口口 |①---|
口口口口 |----|
口口口口 |----|
①口①口 |----|
11
①口①口 |①---|
口口口口 |----|
口②口口 |②---|
口口口口 |----|
12
口口口口 |①---|
口①口① |----|
口口口口 |②---|
口口②口 |----|
13
口②口口 |①---|
口口口口 |----|
①口①口 |②---|
口口口口 |----|
14
口口口口 |①---|
口口②口 |----|
口口口口 |②---|
口①口① |----|
15
口①口① |①---|
口口口口 |----|
口口②口 |②---|
口口口口 |----|
16
口口口口 |①---|
①口①口 |----|
口口口口 |②---|
口②口口 |----|
17
口口②口 |①---|
口口口口 |----|
口①口① |②---|
口口口口 |----|
18
口口口口 |①---|
口口口口 |----|
口口口口 |----|
①口①口 |----|
19
口口口① |①---|
口口②口 |②---|
口③口口 |③---|
口口口口 |----|
20
①口口口 |①---|
口②口口 |②---|
口口③口 |③---|
口口口口 |----|
21
口口口口 |①---|
口口③口 |②---|
口②口口 |③---|
①口口口 |----|
22
口口口口 |①---|
口③口口 |②---|
口口②口 |③---|
口口口① |----|
23
口口口① |①---|
口口②口 |②---|
口③口口 |③---|
口口口口 |----|
24
①口口口 |①---|
口②口口 |②---|
口口③口 |③---|
口口口口 |----|
25
口口口口 |①---|
口口③口 |②---|
口②口口 |③---|
①口口口 |----|
26
口口口口 |①---|
口③口口 |②---|
口口②口 |③---|
口口口① |----|
27
②口口① |①---|
④口口③ |②---|
口口口口 |③---|
口口口口 |④---|
28
口口口口 |①---|
口口口口 |②---|
②口口① |③---|
④口口③ |④---|
29
口口口口 |①---|
口口口口 |②---|
口④③口 |③---|
口②①口 |④---|
30
口④③口 |①---|
口②①口 |②---|
口口口口 |③---|
口口口口 |④---|
31
口口口口 |①---|
口口口口 |②---|
④口口③ |③---|
②口口① |④---|
32
④口口③ |①---|
②口口① |②---|
口口口口 |③---|
口口口口 |④---|
33
口口口口 |①---|
口口口口 |②---|
口④③口 |③---|
口②①口 |④---|
34
口④③口 |①---|
口②①口 |②---|
口口口口 |③---|
口口口口 |④---|
35
口口口口 |①---|
口口口③ |②---|
口口口② |③---|
口口口① |----|
36
口口口口 |①---|
口④口口 |②---|
口①②口 |③---|
口③口口 |④---|
37
口口口① |①---|
②口口口 |②---|
口口口③ |③---|
④口口口 |④---|
38
口④口口 |①---|
口口③口 |②---|
口②口口 |③---|
口口①口 |④---|
39
口口口口 |①---|
口口口口 |②---|
口口口口 |③---|
④③②① |④---|
40
口口口口 |①---|
口口口口 |②---|
④③②① |③---|
口口口口 |④---|
41
口口口口 |①---|
口口口口 |----|
口②口口 |②---|
口口①口 |----|
42
口②口口 |①---|
口口①口 |----|
口口口口 |②---|
口口口口 |----|
43
①口①口 |①---|
口②口口 |----|
口口口口 |②---|
口口口口 |----|
44
口口口口 |①---|
口口口口 |----|
口①口口 |②---|
口口②口 |----|
45
口口口口 |①---|
口口①口 |----|
口②口口 |②---|
口口口口 |----|
46
口口口口 |①---|
口口口口 |----|
口口口口 |----|
①口口口 |----|
47
口口①① |①---|
口口口口 |----|
口口口口 |----|
口口口口 |----|
48
①①口口 |①---|
口口口口 |----|
口口口口 |----|
口口口口 |----|
49
口口口口 |①---|
口口①① |----|
口口口口 |----|
口口口口 |----|
50
口口口口 |①---|
①①口口 |----|
口口口口 |----|
口口口口 |----|
51
口口口口 |①---|
②口口口 |----|
口口口① |②---|
口口口① |----|
52
口口口口 |①---|
口②口口 |----|
口口①口 |②---|
口口①口 |----|
53
口口口① |①---|
口口口① |----|
口②口口 |②---|
口口口口 |----|
54
口口①口 |①---|
口口①口 |----|
②口口口 |②---|
口口口口 |----|
55
①口口口 |①---|
①口口口 |----|
口口②口 |②---|
口口口口 |----|
56
口①口口 |①---|
口①口口 |----|
口口口② |②---|
口口口口 |----|
57
口口口口 |①---|
口口②口 |----|
①口口口 |②---|
①口口口 |----|
58
口口口口 |①---|
口口口口 |----|
口①口口 |----|
口①口口 |----|
59
①口①口 |①---|
口口口口 |----|
口②口口 |②---|
口口口口 |----|
60
口口口口 |①---|
口①口① |----|
口口口口 |②---|
口口②口 |----|
61
口②口口 |①---|
口口口口 |----|
①口①口 |②---|
口口口口 |----|
62
口口口口 |①---|
口口②口 |----|
口口口口 |②---|
口①口① |----|
63
口①口① |①---|
口口口口 |----|
口口②口 |②---|
口口口口 |----|
64
口口口口 |①---|
①口①口 |----|
口口口口 |②---|
口②口口 |----|
65
口口②口 |①---|
口口口口 |----|
口①口① |②---|
口口口口 |----|
66
口口口口 |①---|
口②口口 |----|
口口口口 |②---|
①口①口 |----|
67
口口口① |①---|
口口②口 |②---|
口③口口 |③---|
④口口口 |④---|
68
①口口口 |①---|
口②口口 |②---|
口口③口 |③---|
口口口④ |④---|
69
口口④口 |①---|
口口③口 |②---|
口②口口 |③---|
口①口口 |④---|
70
口①口口 |①---|
口②口口 |②---|
口口③口 |③---|
口口④口 |④---|
71
口口口④ |①---|
③口口口 |②---|
口口口② |③---|
①口口口 |④---|
72
①口口口 |①---|
口口口② |②---|
③口口口 |③---|
口口口④ |④---|
73
口④口口 |①---|
口③口口 |②---|
口②口口 |③---|
口①口口 |④---|
74
口口①口 |①---|
口口②口 |②---|
口口③口 |③---|
口口④口 |④---|
75
①①口口 |①---|
口口②② |②---|
③③口口 |③---|
口口④④ |④---|
76
口口④④ |①---|
③③口口 |②---|
口口②② |③---|
①①口口 |④---|
77
②②④④ |①---|
口口口口 |②---|
①①③③ |③---|
口口口口 |④---|
78
口口口口 |①---|
①①②② |②---|
口口口口 |③---|
③③④④ |④---|
79
口口口口 |①---|
④②②④ |②---|
③①①③ |③---|
口口口口 |④---|
80
④②②④ |①---|
口口口口 |②---|
口口口口 |③---|
③①①③ |④---|
81
口④④口 |①---|
口③③口 |②---|
口②②口 |③---|
口①①口 |④---|
82
④口口④ |①---|
③口口③ |②---|
②口口② |③---|
①口口① |④---|

accuracy: 100%
最終更新:2023年07月21日 20:11