アットウィキロゴ
satfinal
RAM

ADVANCED

Level: 7
BPM: 180
Notes: 467

1
口口口口 |----|
口口口口 |----|
口口口口 |----|
口口口口 |----|
2
①②③口 |----|
口口口口 |----|
口口口口 |--①-|
口口口口 |②-③-|
3
口口口口 |①---|
②口口口 |----|
口口口口 |②---|
口①①口 |----|
4
口口口口 |①---|
口口口② |----|
口①①口 |②---|
口口口口 |----|
5
口口口口 |①---|
口①①口 |----|
②口口口 |②---|
口口口口 |----|
6
口①①口 |①---|
口口口口 |----|
口口口② |②---|
口口口口 |----|
7
口口口口 |①---|
口②口口 |----|
口口口口 |②---|
①口口① |----|
8
口口口口 |①---|
口口②口 |----|
①口口① |②---|
口口口口 |----|
9
口口口口 |①---|
①口口① |----|
口②口口 |②---|
口口口口 |----|
10
①口口① |①---|
口口口口 |----|
口口②口 |②---|
口口口口 |----|
11
口口口口 |①---|
③口口口 |②---|
②口口口 |③---|
口①①口 |----|
12
口口口口 |①---|
口口口③ |②---|
口①①② |③---|
口口口口 |----|
13
③口口口 |①---|
②①①口 |②---|
口口口口 |③---|
口口口口 |----|
14
口①①③ |①---|
口口口② |②---|
口口口口 |③---|
口口口口 |----|
15
口③口口 |①---|
口②口口 |②---|
口口口口 |③---|
①口口① |----|
16
口口③口 |①---|
口口②口 |②---|
①口口① |③---|
口口口口 |----|
17
口③口口 |①---|
①②口① |②---|
口口口口 |③---|
口口口口 |----|
18
①口③① |①---|
口口②口 |②---|
口口口口 |③---|
口口口口 |----|
19
口⑤口口 |①---|
口口口② |②---|
口③④口 |③-④-|
①①口口 |--⑤-|
20
④口口⑤ |①---|
②口口口 |②---|
口口③口 |③-④-|
口⑥口① |⑤-⑥-|
21
口②⑤口 |①---|
口口口口 |②---|
口④③口 |③-④-|
口口口① |--⑤-|
22
口⑦口口 |①---|
③口⑥② |②-③-|
口⑤口口 |④-⑤-|
①口④口 |⑥-⑦-|
23
口口⑤口 |①---|
②口口口 |②---|
口④③口 |③-④-|
口口口① |--⑤-|
24
⑤口口④ |①---|
口口口② |②---|
口③口口 |③-④-|
①口⑥口 |⑤-⑥-|
25
口⑤口口 |①---|
口口口② |②---|
口③④口 |③-④-|
①口口口 |--⑤-|
26
口口⑦口 |①---|
②⑥口③ |②-③-|
口口⑤口 |④-⑤-|
口④口① |⑥-⑦-|
27
①①口口 |①---|
口口④口 |②---|
②②口口 |③-④-|
口⑤口③ |--⑤-|
28
口口①① |①---|
⑤口口④ |②---|
口口②② |③-④-|
③口⑥口 |⑤-⑥-|
29
①①口口 |①---|
口口④口 |②---|
②②口口 |③-④-|
口⑤口③ |--⑤-|
30
口口①① |①---|
③④⑤⑥ |②---|
口口②② |③-④-|
口口口口 |⑤-⑥-|
31
①①口口 |①---|
口口④口 |②---|
②②口口 |③-④-|
口⑤口③ |--⑤-|
32
口口①① |①---|
⑤口口④ |②---|
口口②② |③-④-|
③口⑥口 |⑤-⑥-|
33
①①口口 |①---|
口口④口 |②---|
②②口口 |③-④-|
口⑤口③ |--⑤-|
34
口⑧口⑦ |①-②-|
⑥口⑤口 |③-④-|
口④口③ |⑤-⑥-|
②口①口 |⑦-⑧-|
35
②口①口 |①---|
口口口口 |②---|
②口①口
口口口口

口口口口
口③口④
口⑤⑤口 |③-④-|
口④口③ |--⑤-|
36
口口口② |----|
③口口口 |--①-|
①口口④ |②-③-|
⑤口口口 |④-⑤-|
37
口②①口 |①---|
④口⑤③ |②---|
口②①口 |③---|
⑤口④③ |④-⑤-|
38
⑥②②口 |--①-|
口口口⑤ |--②-|
④①①口 |③-④-|
口口口③ |⑤-⑥-|
39
口③口② |①---|
③⑤②口 |②---|
口口口口 |③---|
④①①④ |④-⑤-|
40
④口口② |--①-|
口口口口 |--②-|
口③①口 |--③-|
口口口口 |--④-|
41
口口④口 |①---|
口口口口 |②---|
⑤口口口 |③-④-|
口③②① |--⑤-|
42
口口⑤口 |----|
口④口口 |①---|
口口③口 |②-③-|
口②口① |④-⑤-|
43
①口口口 |①---|
口口口② |--②-|
口口③口 |③-④-|
口④口⑤ |--⑤-|
44
①口口口 |----|
口口②口 |--①-|
口口口口 |----|
口口口口 |②---|
45
口②口口 |①---|
口⑤口口 |--②-|
口①④口 |--③-|
口口口③ |④-⑤-|
46
口口口口 |--①-|
口口口① |----|
口口口口 |----|
口口口口 |----|
47
口④口口 |①-②-|
③口口口 |③-④-|
口②口口 |----|
①口口口 |----|
48
口口②口 |①-②-|
③口口口 |--③-|
口⑤口④ |--④-|
口口口① |--⑤-|
49
口口口口 |①---|
口口③口 |--②-|
口口口口 |--③-|
②④①口 |--④-|
50
④④口口 |①---|
③口③口 |②---|
口②口② |③---|
口口①① |④---|
51
口口①① |①---|
口②口口 |----|
口口口口 |--②-|
②口口口 |----|
52
口②口口 |①---|
口口②口 |--②-|
口口口①
口口①口

口口③口
口③口④
口口口④ |--③-|
口口口口 |--④-|
53
口口口口 |①---|
口口②口 |----|
口口口口 |②---|
①口口② |----|
54
口②③口 |①---|
口①口口 |--②-|
口③②口 |--③-|
①口口口 |----|
55
口口口口 |①---|
口口②口 |----|
口口口口 |②---|
①①口② |----|
56
口③②口 |①---|
③⑤⑤② |--②-|
①口④口 |③-④-|
口①口④ |--⑤-|
57
口④③② |①-②-|
口口口口 |③-④-|
⑤⑥⑦⑧ |⑤-⑥-|
①口口口 |⑦-⑧-|
58
口口口口 |①---|
口①①口 |----|
口口口口 |----|
口口口口 |----|
59
口口④③ |①---|
口口口口 |②---|
⑤②口口 |③-④-|
①口口口 |--⑤-|
60
③④口口 |①---|
口口口口 |②---|
口口②⑤ |③-④-|
口口口① |--⑤-|
61
⑤口口口 |①---|
口口④③ |②---|
②口口口 |③-④-|
口①口口 |--⑤-|
62
口口口口 |①---|
③④口⑤ |②---|
口口口② |③-④-|
口口①口 |--⑤-|
63
口口④③ |①---|
口口口口 |②---|
⑤②口口 |③-④-|
①口口口 |--⑤-|
64
③④口口 |①---|
口口口口 |②---|
口口②⑤ |③-④-|
口口口① |--⑤-|
65
⑤口口口 |①---|
口口④③ |②---|
②口口口 |③-④-|
口①口口 |--⑤-|
66
口口⑥口 |①---|
口⑤口口 |②---|
口口④② |③-④-|
口③①口 |⑤-⑥-|
67
①⑤⑤② |①---|
口口口口 |②---|
①③④② |③-④-|
口④③口 |--⑤-|
68
②口口③ |----|
口口口口 |①---|
口④⑤口 |②-③-|
①口口① |④-⑤-|
69
口口口口 |①---|
口①②⑤ |②---|
③口口③ |③---|
④①②口 |④-⑤-|
70
口①④口 |①-②-|
口⑦⑧口 |③-④-|
口③②口 |⑤-⑥-|
口⑤⑥口 |⑦-⑧-|
71
③②③② |①---|
口口口口 |②---|
①口口④ |③---|
①口口④ |④---|
72
⑦口口⑥ |①-②-|
口③②口 |③-④-|
口①④口 |⑤-⑥-|
⑤口口⑧ |⑦-⑧-|
73
口④口口 |①---|
①②③口 |②---|
口口口口 |③-④-|
口口⑤口 |--⑤-|
74
口口口口 |①-②-|
③⑦⑧④ |③-④-|
①⑤⑥② |⑤-⑥-|
口口口口 |⑦-⑧-|
75
①③⑤⑦ |①-②-|
口口口口 |③-④-|
口口口口 |⑤-⑥-|
⑧⑥④② |⑦-⑧-|
76
口⑥⑤口 |①-②-|
口③口① |③-④-|
④口②口 |⑤-⑥-|
口⑧⑦口 |⑦-⑧-|
77
口口口口 |①-②-|
⑥口口③ |③-④-|
⑤⑧⑦② |⑤-⑥-|
④口口① |⑦-⑧-|
78
口⑤①口 |①-②-|
口②⑥口 |③-④-|
⑦口口③ |⑤-⑥-|
④口口⑧ |⑦-⑧-|
79
口⑥④口 |①-②-|
口②⑧口 |③-④-|
口⑤③口 |⑤-⑥-|
口①⑦口 |⑦-⑧-|
80
①口口② |①-②-|
③口口④ |③-④-|
⑤口口⑥ |⑤-⑥-|
⑦口口⑧ |⑦-⑧-|
81
口⑦⑧口 |①-②-|
口⑤⑥口 |③-④-|
口③④口 |⑤-⑥-|
口①②口 |⑦-⑧-|
82
⑦口口⑧ |①-②-|
⑤口口⑥ |③-④-|
③口口④ |⑤-⑥-|
①口口② |⑦-⑧-|

accuracy: 100%
最終更新:2023年07月21日 20:22