アットウィキロゴ
satfinal
RAM

EXTREME

Level: 9.2
BPM: 180
Notes: 668

1
口口口口 |----|
口口口口 |----|
口口口口 |----|
口口口口 |----|
2
①②③口 |----|
口口口口 |----|
口口口口 |--①-|
口口口口 |②-③-|
3
口④口④ |①---|
②口口口 |②---|
口口口③ |③-④-|
口①①① |----|
4
口口口口 |①---|
口④②④ |②---|
口口口口 |③-④-|
①③①口 |----|
5
口口口② |①---|
口③口口 |②---|
①口①口 |③-④-|
口④口④ |----|
6
口口口口 |①---|
①口①口 |②---|
口口②口
口口口口

口③口口
⑤口口口
口④口④ |③-④-|
口口口口 |--⑤-|
7
口口口② |①---|
口③口口 |②---|
口口口口 |③-④-|
④①④① |----|
8
①口①口 |①---|
口④口④ |②---|
口③口口 |③-④-|
口口口② |----|
9
口口口③ |①---|
①口①口 |②---|
口④口④ |③-④-|
口②口口 |----|
10
口③⑤口 |①---|
口⑥②口 |②---|
口④口④ |③-④-|
①口①口 |⑤-⑥-|
11
口④口④ |①---|
②口口口 |②---|
口⑤口③ |③-④-|
口①口① |⑤---|
12
口⑥⑤口 |①---|
口④②④ |②---|
口口口口 |③-④-|
①③①口 |⑤-⑥-|
13
口口⑤② |①---|
口③口口 |②---|
①口①口 |③-④-|
口④口④ |⑤---|
14
口口口口 |①---|
①口①口 |②---|
口口②口
口口口口

口③⑤口
⑥口口口
口④口④ |③-④-|
口口口口 |⑤-⑥-|
15
口口口② |①---|
口③⑤口 |②---|
口口口口 |③-④-|
④①④① |⑤---|
16
①⑥①口 |①---|
口④口④ |②---|
口③口口 |③-④-|
口口⑤② |⑤-⑥-|
17
口口⑤③ |①---|
①口①口 |②---|
口④口④ |③-④-|
口②口口 |⑤---|
18
②③④口 |①---|
口口口口 |----|
口口口口 |--②-|
①口口① |③-④-|
19
③口口② |①---|
⑤口口口 |②---|
口④口口 |③-④-|
口①①口 |--⑤-|
20
⑤口②④ |①---|
口口口口 |②---|
口口口⑥ |③-④-|
③口口① |⑤-⑥-|
21
口口口口 |①---|
口④②口 |②---|
⑤①口口 |③-④-|
③口口口 |--⑤-|
22
⑥②口③ |①---|
口口口⑤ |②-③-|
口口口① |④-⑤-|
④口口⑦ |⑥-⑦-|
23
口②口口 |①---|
口口口④ |②---|
①口口⑤ |③-④-|
口口③口 |--⑤-|
24
⑤口②口 |①---|
口口口口 |②---|
①③口⑥ |③-④-|
口口口④ |⑤-⑥-|
25
口口口② |①---|
口④口口 |②---|
⑤口口口 |③-④-|
③①口口 |--⑤-|
26
②⑥⑦③ |①---|
⑩口口⑪ |②-③-|
⑧④⑤⑨ |④⑤⑥⑦|
口口①① |⑧⑨⑩⑪|
27
③口口② |①---|
⑤口②口 |②---|
口④口口 |③-④-|
口①①口 |--⑤-|
28
口口②口 |①---|
口②口口 |②---|
口口口口
口口①①

⑤⑤口④
口口口④
口口口⑥ |③-④-|
③③口⑥ |⑤-⑥-|
29
口口口口 |①---|
口④②口 |②---|
⑤①①口 |③-④-|
③口②口 |--⑤-|
30
口②口③ |①---|
口口②口 |②-③-|
口口①①
口口口口

⑥口口口
④⑥口⑤
口口口⑦ |④-⑤-|
④口⑤⑦ |⑥-⑦-|
31
口②②口 |①---|
口口口④ |②---|
①①口⑤ |③-④-|
口口③口 |--⑤-|
32
⑤⑤②② |①---|
口口⑥④ |②---|
①③口⑥ |③-④-|
③①口④ |⑤-⑥-|
33
口口口② |①---|
①④口口 |②---|
⑤口②口 |③-④-|
③①口口 |--⑤-|
34
②⑥⑦③ |①---|
⑩口口⑪ |②-③-|
⑧④⑤⑨ |④⑤⑥⑦|
口口①① |⑧⑨⑩⑪|
35
⑤口④⑥ |①---|
口①②口 |②---|
口口⑥④ |③-④-|
③①②口 |⑤-⑥-|
36
口④口口 |①---|
②口⑤口 |②-③-|
⑥①口口 |④-⑤-|
口口⑦③ |⑥-⑦-|
37
①口⑤② |①---|
②口③⑤ |②---|
口①口口 |③---|
④③口口 |④-⑤-|
38
口①⑧⑥ |①-②-|
③⑦口口 |③-④-|
⑤口②④ |⑤-⑥-|
口口④② |⑦-⑧-|
39
②④口③ |①---|
④口口⑤ |②---|
口③口口 |③---|
①①口② |④-⑤-|
40
⑦口④⑧ |①-②-|
口⑤②⑧ |③-④-|
口口口④ |⑤-⑥-|
①③⑥⑥ |⑦-⑧-|
41
口口④口 |①---|
③⑤口口 |②---|
口②口④ |③-④-|
①口⑤口 |--⑤-|
42
③⑥⑦口 |①---|
⑩口口⑪ |②-③-|
口④⑤口 |④⑤⑥⑦|
①⑧⑨② |⑧⑨⑩⑪|
43
口口口② |①---|
口口③口 |--②-|
口④口口 |③-④-|
①口口⑤ |--⑤-|
44
①口口口 |----|
口口口口 |--①-|
口口②口 |----|
口口口口 |②---|
45
口口口口 |①---|
②口口⑤ |--②-|
口口④口 |--③-|
口①口③ |④-⑤-|
46
口口口口 |--①-|
口口口口 |----|
口口口口 |----|
口①口口 |----|
47
口③②① |①-②-|
口口口口 |③-④-|
口口口④ |----|
口口④口 |----|
48
②口③③ |①-②-|
②口⑤口 |--③-|
口⑤口口 |--④-|
口①④④ |--⑤-|
49
口口口口 |①---|
口③口口 |--②-|
口口口① |--③-|
②口口④ |--④-|
50
①①口④ |①---|
⑥⑥⑤口 |②-③-|
口口口② |④-⑤-|
③③口⑦ |⑥-⑦-|
51
①①⑥口 |①---|
⑤口口② |②-③-|
①⑤⑦④ |④-⑤-|
⑤口③口 |⑥-⑦-|
52
①①口④ |①-②-|
口①③④ |③-④-|
口口口口
口口口②

口口⑧口
口⑧口口
⑤⑦口⑥ |⑤-⑥-|
口口⑥口 |⑦-⑧-|
53
⑥①口⑤ |①-②-|
④口⑤⑤ |③-④-|
口口①口 |⑤-⑥-|
②⑧⑦③ |⑦-⑧-|
54
⑥⑥①⑤ |①-②-|
⑥①④⑦ |③-④-|
③④②① |⑤-⑥-|
⑧口口④ |⑦-⑧-|
55
⑤口②口 |①-②-|
⑤③口⑥ |③-④-|
⑤⑦④口 |⑤-⑥-|
口①①⑧ |⑦-⑧-|
56
口②口① |①-②-|
口④①口 |③-④-|
④口口①
口口③口

⑦口口口
口口⑧⑤
口⑥⑤⑧ |⑤-⑥-|
⑥口口口 |⑦-⑧-|
57
口④③② |①-②-|
口口口口 |③-④-|
⑤⑥⑦⑧ |⑤-⑥-|
口①口口 |⑦-⑧-|
58
口口口口 |①-②-|
①⑥③⑧ |③-④-|
⑤口⑦口 |⑤-⑥-|
口②口④ |⑦-⑧-|
59
③口口② |①---|
口⑤口口 |②---|
口④口口 |③-④-|
口①①口 |--⑤-|
60
口口②④ |①---|
⑤口口口 |②---|
口口口口 |③-④-|
③口①① |--⑤-|
61
口②口口 |①---|
口④口① |②---|
⑤口①口 |③-④-|
③口口口 |--⑤-|
62
口②口⑤ |①---|
口口口口 |②---|
口口①口 |③-④-|
③口④① |--⑤-|
63
口口②口 |①---|
口①口④ |②---|
①口⑤口 |③-④-|
口口③口 |--⑤-|
64
⑤⑤口② |①---|
①口④⑥ |②---|
①口口⑥ |③-④-|
③口口④ |⑤-⑥-|
65
口口口② |①---|
口④口口 |②---|
⑤口口口 |③-④-|
③①①口 |--⑤-|
66
②⑥⑦③ |①---|
⑩口口⑪ |②-③-|
⑧④⑤⑨ |④⑤⑥⑦|
口口①① |⑧⑨⑩⑪|
67
⑤口④⑥ |①---|
口①②口 |②---|
口口⑥④ |③-④-|
③①②口 |⑤-⑥-|
68
口④口口 |①---|
②口⑤口 |②-③-|
⑥①口口 |④-⑤-|
口口⑦③ |⑥-⑦-|
69
①口⑤② |①---|
②口③⑤ |②---|
口①口口 |③---|
④③口口 |④-⑤-|
70
口①⑧⑥ |①-②-|
③⑦口口 |③-④-|
⑤口②④ |⑤-⑥-|
口口④② |⑦-⑧-|
71
②⑤口③ |①---|
⑤④口⑥ |②---|
口③⑥口 |③-④-|
①①口② |⑤-⑥-|
72
⑦口④⑧ |①-②-|
口⑤②⑧ |③-④-|
②口口④ |⑤-⑥-|
①③⑥⑥ |⑦-⑧-|
73
口口④口 |①---|
③⑥口口 |②---|
⑤②口④ |③-④-|
①口⑥口 |⑤-⑥-|
74
④⑦⑧口 |①-②-|
⑪口②⑫ |③-④-|
口⑤⑥口 |⑤⑥⑦⑧|
①⑨⑩③ |⑨⑩⑪⑫|
75
⑤⑥⑨口 |①-②-|
口①③口 |③-④-|
口⑦口⑧ |⑤⑥⑦-|
②口口④ |⑧-⑨-|
76
口口口⑥ |①②③-|
④⑤口① |④⑤-⑥|
口口②口
口③口口

口口⑧口
口口口口
⑨⑩⑪口 |-⑦-⑧|
⑦口口口 |⑨⑩⑪-|
77
口③⑥口 |①-②-|
②口口⑤ |③-④-|
口口口口 |⑤-⑥-|
⑦①④⑧ |⑦-⑧-|
78
口③⑩④ |①-②-|
⑤⑨⑥口 |③④⑤⑥|
口⑦②⑧ |⑦⑧⑨-|
口①口⑪ |⑩-⑪-|
79
①⑦⑨④ |①-②③|
⑫口口⑪ |④-⑤⑥|
⑧⑩⑥⑤ |⑦-⑧-|
②③口口 |⑨⑩⑪⑫|
80
②口⑦⑤ |①-②-|
口④①口 |③-④-|
口⑧口口 |⑤-⑥-|
口③⑥口 |⑦-⑧-|
81
①口口⑧ |①-②③|
⑬⑦⑥⑭ |④⑤⑥⑦|
⑤⑪⑫④ |⑧-⑨⑩|
③⑨⑩② |⑪⑫⑬⑭|
82
③①⑧⑧ |①-②-|
⑦⑦④口 |③-④-|
⑤口口⑥ |⑤-⑥-|
口⑤⑥② |⑦-⑧-|

accuracy: 100%
最終更新:2023年07月21日 20:36