アットウィキロゴ
BPM:210
1
①⑤③□ |①-②-|
⑤□□□ |③-④-|
□□□⑥ |--⑤-|
□②⑥④ |--⑥-|
2
□□②□ |--①-|
□③④② |--②-|
①④③□ |③---|
□①□□ |④---|
3
□③⑤① |①-②-|
□□□⑤ |③-④-|
⑥□□□ |--⑤-|
④⑥②□ |--⑥-|
4
□②□□ |--①-|
②④③□ |--②-|
□③④① |③---|
□□①□ |④---|
5
①⑤③□ |①-②-|
⑤□□□ |③-④-|
□□□⑥ |--⑤-|
□②⑥④ |--⑥-|
6
□□②□ |--①-|
□③④② |--②-|
①④③□ |③---|
□①□□ |④---|
7
①⑤□④ |①---|
①⑤□④ |②---|
③□□② |③--④|
③□□② |--⑤-|
8
□□□□ |①-②-|
④□③□ |③-④-|
⑧□□⑦ |⑤-⑥-|
⑥②①⑤ |⑦-⑧-|
9
□□①□ |①---|
③□③① |②---|
□②□□ |③---|
□②□□ |----|

>――①
□□□□
□□□□
□□□□
10
①②②3 |①---|
□③□□ |②---|
①□□□ |----|
□③□□ |③---|
11
①――< |①---|
□③③② |----|
□①□① |②---|
□□□② |③---|
12
3□②□ |----|
□□□□ |①---|
□②①① |②---|
□□□□ |③---|
13
□③□□ |①---|
①②□② |②---|
①③□□ |----|
>――① |③---|
14
②□□□ |①---|
①③①□ |----|
②□③□ |②---|
□□□3 |③---|
15
□□④④ |①---|
□□③③ |②---|
□②□② |③---|
□①□□ |④---|

□□□□
□□□□
□□□□
①――<
16
⑦□□□ |①---|
⑥③⑤□ |②-③-|
□②④□ |④-⑤-|
2□①① |⑥-⑦-|
17
□②②□ |----|
□□□① |----|
②□□□ |①---|
□①①□ |②---|
18
②□⑤□ |①---|
②①①⑤ |②-③-|
□①①③ |--④-|
④⑥□③ |⑤-⑥-|
19
⑦⑦□⑥ |①-②-|
⑤⑤①⑧ |③-④-|
③③②⑧ |⑤-⑥-|
□□□④ |⑦-⑧-|
20
□⑤①□ |①---|
⑤□①□ |②-③-|
③③②⑥ |--④-|
①①②④ |⑤-⑥-|
21
③⑧③⑧ |①-②-|
□⑤⑥⑦ |③-④-|
□④⑨□ |⑤⑥⑦-|
①②□□ |⑧-⑨-|
22
⑤⑦□□ |①-②-|
③⑦□⑥ |③-④-|
①⑤□④ |⑤-⑥-|
①③②⑧ |⑦-⑧-|
23
□⑦⑤① |①-②-|
④□③⑦ |③-④-|
□⑥①⑤ |⑤-⑥-|
②⑧③□ |⑦-⑧-|
24
②□⑧□ |①-②-|
⑤④③⑧ |③④⑤-|
⑨□①⑥ |⑥-⑦-|
⑦⑨□① |⑧-⑨-|
25
④①□① |①---|
③⑥③□ |②-③-|
□□⑦□ |④-⑤-|
□□②⑤ |⑥-⑦-|
26
⑤①⑦② |①-②-|
④⑧□⑦ |③-④-|
①①□④ |⑤-⑥-|
⑥⑧③□ |⑦-⑧-|
27
⑤①□③ |①-②-|
⑤□①⑧ |③-④-|
③□⑥⑥ |⑤-⑥-|
⑦□④② |⑦-⑧-|
28
⑤③④④ |①-②-|
□①②□ |③-④-|
③⑦⑧⑨ |⑤-⑥-|
□①⑥② |⑦⑧⑨-|
29
⑥⑥⑥⑥ |①-②-|
①⑤④③ |③④⑤-|
□□⑦□ |⑥---|
□②□⑧ |⑦-⑧-|
30
□□⑧⑤ |①-②-|
①④⑥⑤ |③-④-|
①⑦□⑤ |⑤-⑥-|
①③②□ |⑦-⑧-|
31
①①□⑨ |①-②-|
□⑦⑥⑤ |③-④-|
④□②□ |⑤⑥⑦-|
③③⑧⑧ |⑧-⑨-|
32
⑦①②□ |①-②-|
①□□⑧ |③④⑤-|
⑤④③⑥ |⑥-⑦-|
⑨□□□ |⑧-⑨-|
33
⑨④⑧□ |①②③-|
④⑥⑤□ |④-⑤-|
⑥□⑦⑧ |⑥-⑦-|
□③②① |⑧-⑨-|
34
□③□④ |①-②-|
□□□② |③-④-|
□⑨⑦⑧ |⑤-⑥⑦|
⑤□①⑥ |⑧-⑨-|
35
①□④⑤ |①-②-|
⑥⑨③□ |③④⑤-|
□□□□ |⑥-⑦-|
⑧⑦②□ |⑧-⑨-|
36
⑥□□⑦ |①②③④|
□□⑧⑤ |⑤-⑥-|
⑨⑩④③ |⑦-⑧-|
⑪□②① |⑨⑩⑪-|
37
⑥⑤②□ |①-②-|
④□⑧⑦ |③-④⑤|
□□③⑨ |⑥-⑦⑧|
⑩□□① |⑨-⑩-|
38
□□⑤① |①-②③|
□④⑩□ |④-⑤-|
③②⑧⑨ |⑥⑦⑧⑨|
□⑪⑥⑦ |⑩-⑪-|
39
①□④③ |①-②-|
□□□⑤ |③④⑤-|
□②□□ |⑥-⑦-|
⑥□□□ |--⑧-|

□□□□
□□□□
□□□□
>――⑦

□□□□
□□□□
□□□□
□⑧□8
40
⑦□□⑨ |①-②-|
⑤⑥①□ |③④⑤⑥|
③④□⑧ |⑦-⑧-|
□□②□ |⑨---|
41
⑥⑧①⑦ |①-②-|
④④⑤① |③-④-|
⑥⑧③⑦ |⑤-⑥-|
②②⑤③ |⑦-⑧-|
42
⑥□①⑨ |①---|
⑧⑦□① |②-③④|
□□③□ |⑤-⑥⑦|
②□⑤④ |⑧-⑨-|
43
□③□□ |①-②-|
□□⑦⑥ |③-④-|
②④□⑧ |⑤-⑥⑦|
⑨①⑤□ |⑧-⑨-|
44
⑦□□② |①-②-|
⑤⑥⑪⑩ |③④⑤⑥|
③④①□ |⑦-⑧-|
□⑧□⑨ |⑨-⑩⑪|
45
□③④⑧ |①-②-|
□□□□ |③-④-|
□□⑦① |⑤-⑥-|
②⑥⑤□ |⑦-⑧-|
46
⑤⑫⑥□ |①②③④|
③④□⑪ |⑤-⑥-|
①②⑩⑨ |⑦⑧⑨⑩|
□□⑧⑦ |⑪-⑫-|
47
⑧□□② |①-②-|
④□③⑨ |③-④-|
□□□⑦ |⑤⑥⑦-|
①□⑥⑤ |⑧-⑨-|
48
⑩⑪□⑦ |①②③④|
□⑤⑧□ |⑤-⑥-|
④③⑥□ |⑦-⑧-|
②①□⑨ |⑨-⑩⑪|
49
□□□□ |①-②-|
①□□② |③-④-|
③□④② |⑤---|
□③④□ |⑥---|

□□□□
□⑤―<
□□□□
⑤―<□

□□□□
□6□□
□□□□
6□□□
50
>――① |①---|
□□□□ |----|
□①□□ |②---|
□□□□ |③---|

②②□2
□□③□
③――<
□□□□
51
□□∨□ |----|
□□|□ |①---|
1□|□ |----|
□①①□ |----|
52
□①□□ |①---|
①――< |----|
□□□□ |②---|
□□1□ |③---|

□□□□
2□②②
□③□□
>――③
53
□①①□ |----|
□|□□ |①---|
□|□□ |----|
□∧□1 |----|
54
□1□□ |①---|
>――① |----|
□□□① |②---|
□□□□ |③---|

□□□□
②□□2
③――<
□③②□
55
>――① |----|
□□□□ |①---|
1□①□ |----|
□□□□ |----|
56
□□□1 |①---|
□□①□ |----|
□□□□ |②---|
①――< |③---|

□□□□
□②□□
□□□②
2□□□

□□□□
>――③
□□□□
□□③□
57
□∨□□ |----|
□|□1 |①---|
□|①□ |----|
□①□□ |----|
58
□④④□ |①-②-|
□□□③ |③-④-|
②□□□ |----|
□1□① |----|
59
□④④□ |①-②-|
③□□□ |③-④-|
□□□② |----|
①□□□ |----|
60
□□□□ |①---|
□□①□ |--②-|
□□□□ |----|
①――< |③---|

□□□②
□□□□
□□□□
2□□□

□□□□
□③□□
□□□□
>――③
61
①□□□ |----|
□□□□ |①---|
□□□□ |----|
□□□1 |----|
62
□②③② |①---|
①③①③ |--②-|
□②③② |----|
□□①□ |③---|
63
□□□□ |----|
②□①□ |①---|
□③□□ |②---|
①□②□ |③---|
64
①――< |①---|
□□□□ |--②-|
□□①□ |----|
□□□□ |③---|

2□□□
□□□□
□□□□
□□□②

>――③
□□□□
□③□□
□□□□
65
□□□1 |----|
□③②□ |①---|
□⑤④□ |②-③-|
①□□□ |④-⑤-|
66
□□④□ |①-②-|
□⑤⑤③ |③-④-|
□□□② |----|
□□①□ |⑤---|
67
□④□□ |①-②-|
③□□□ |③-④-|
②□□□ |----|
□①□□ |----|
68
□□□① |①-②-|
⑤□②⑤ |③-④-|
□□③□ |----|
□□□④ |⑤---|
69
①□□□ |①-②-|
□②□□ |③-④-|
□③□□ |----|
④□□□ |----|
70
□□④□ |①-②-|
□⑤⑤③ |③-④-|
□□②□ |----|
□□□① |⑤---|
71
⑥④□⑤ |①-②-|
③□□□ |③-④-|
□②□□ |----|
①□□□ |⑤-⑥-|
72
□□□□ |①-②-|
□□③② |③-④-|
□⑤⑤□ |----|
□□①④ |⑤---|
73
⑥□①⑦ |①-②-|
②□□③ |③-④-|
⑧□□① |⑤-⑥-|
□④□⑤ |⑦-⑧-|
74
□□④□ |①-②-|
□⑥⑥③ |③-④-|
□⑤□② |⑤---|
□□①□ |⑥---|
75
⑥④⑥□ |①-②-|
③□□□ |③-④-|
②□□⑤ |⑤---|
□①□□ |⑥---|
76
□□□① |①-②-|
⑥□②⑥ |③-④-|
□□③□ |⑤---|
□⑤□④ |⑥---|
77
①□□□ |①-②-|
□②⑤□ |③-④-|
□③□□ |⑤---|
④⑥⑥□ |⑥---|
78
□□④□ |①-②-|
□⑥⑥③ |③-④-|
⑤□②□ |⑤---|
□□□① |⑥---|
79
⑦④□⑥ |①-②-|
③□□□ |③-④-|
□②□⑤ |⑤---|
①□□□ |⑥-⑦-|
80
□□□□ |①-②-|
⑤□③② |③-④-|
□⑥⑥□ |⑤---|
□□①④ |⑥---|
81
□□⑧⑦ |①-②-|
⑥□⑨⑤ |③-④-|
②□□① |⑤-⑥-|
□④③□ |⑦⑧⑨-|
82
□□⑦⑥ |①-②-|
□□⑧⑤ |③-④-|
□②□④ |----|
①□③□ |⑤⑥⑦⑧|
83
⑥⑦□□ |①-②-|
⑤⑧□□ |③-④-|
④□②□ |----|
□③□① |⑤⑥⑦⑧|
84
□□⑦⑥ |①-②-|
□□⑧⑤ |③-④-|
□②□④ |----|
①□③□ |⑤⑥⑦⑧|
85
□④□⑦ |①-②-|
□□□□ |③-④-|
⑧□①□ |⑤-⑥-|
②⑥⑤③ |⑦-⑧-|
86
②□⑤□ |①---|
②①①⑤ |②-③-|
□①①③ |--④-|
④⑥□③ |⑤-⑥-|
87
⑦⑦□⑥ |①-②-|
⑤⑤①⑧ |③-④-|
③③②⑧ |⑤-⑥-|
□□□④ |⑦-⑧-|
88
□⑤①□ |①---|
⑤□①□ |②-③-|
③③②⑥ |--④-|
①①②④ |⑤-⑥-|
89
③⑧③⑧ |①-②-|
□⑤⑥⑦ |③-④-|
□④⑨□ |⑤⑥⑦-|
①②□□ |⑧-⑨-|
90
⑤⑦□□ |①-②-|
③⑦□⑥ |③-④-|
①⑤□④ |⑤-⑥-|
①③②⑧ |⑦-⑧-|
91
□⑦⑤① |①-②-|
④□③⑦ |③-④-|
□⑥①⑤ |⑤-⑥-|
②⑧③□ |⑦-⑧-|
92
②□⑧□ |①-②-|
⑤④③⑧ |③④⑤-|
⑨□①⑥ |⑥-⑦-|
⑦⑨□① |⑧-⑨-|
93
④①□① |①---|
③⑥③□ |②-③-|
□□⑦□ |④-⑤-|
□□②⑤ |⑥-⑦-|
94
⑤①⑦② |①-②-|
④⑧□⑦ |③-④-|
①①□④ |⑤-⑥-|
⑥⑧③□ |⑦-⑧-|
95
⑤①□③ |①-②-|
⑤□①⑧ |③-④-|
③□⑥⑥ |⑤-⑥-|
⑦□④② |⑦-⑧-|
96
⑤③④④ |①-②-|
□①②□ |③-④-|
③⑦⑧⑨ |⑤-⑥-|
□①⑥② |⑦⑧⑨-|
97
⑥⑥⑥⑥ |①-②-|
①⑤④③ |③④⑤-|
□□⑦□ |⑥---|
□②□⑧ |⑦-⑧-|
98
□□⑧⑤ |①-②-|
①④⑥⑤ |③-④-|
①⑦□⑤ |⑤-⑥-|
①③②□ |⑦-⑧-|
99
①①□⑨ |①-②-|
□⑦⑥⑤ |③-④-|
④□②□ |⑤⑥⑦-|
③③⑧⑧ |⑧-⑨-|
100
⑦①②□ |①-②-|
①□□⑧ |③④⑤-|
⑤④③⑥ |⑥-⑦-|
⑨□□□ |⑧-⑨-|
101
⑨④⑧□ |①②③-|
④⑥⑤□ |④-⑤-|
⑥□⑦⑧ |⑥-⑦-|
□③②① |⑧-⑨-|
102
>――① |①---|
③④③□ |②---|
□②□□ |③---|
□②□□ |④---|
103
①②②4 |①---|
□④□□ |②---|
①□③□ |③---|
□④□□ |④---|
104
①――< |①---|
□④④③ |②---|
②①□① |③---|
□□□③ |④---|
105
4□③□ |①---|
□□④□ |②---|
□③②② |③---|
□①□□ |④---|
106
□④□□ |①---|
①②□② |②---|
①④③□ |③---|
>――① |④---|
107
③□②□ |①---|
①④①□ |②---|
③□④□ |③---|
□□□4 |④---|
108
□□④④ |①---|
□□③③ |②---|
□②□② |③---|
□①□□ |④---|

□□□□
□□□□
□□□□
①――<
109
⑦□□⑥ |①---|
⑥③⑤⑦ |②-③-|
□②④□ |④-⑤-|
2□①① |⑥-⑦-|
110
□□□□ |----|
□□□□ |----|
□□□□ |----|
□□□□ |----|
最終更新:2022年11月16日 08:23