アットウィキロゴ
BPM:200
1
□□③④ |①---|
□②□③ |②---|
①□②□ |③---|
④①□□ |④---|
2
□⑥⑤□ |①-②-|
④□②□ |③-④-|
□⑧⑦□ |⑤-⑥-|
□③□① |⑦-⑧-|
3
④⑥□□ |①--②|
□⑤③⑤ |③-④-|
①□⑥① |⑤---|
②⑤①③ |⑥---|
4
□□□⑤ |①-②-|
④⑥②□ |③-④-|
□□□⑦ |⑤-⑥-|
③⑧①□ |⑦-⑧-|
5
③□③③ |①---|
②□④① |②---|
①④②□ |③---|
□□①② |④---|
6
⑥①□⑤ |①-②-|
□⑧⑦□ |③-④-|
④□②□ |⑤-⑥-|
③①①□ |⑦-⑧-|
7
□①②□ |①--②|
①□□② |--③-|
③③④④ |④---|
③②①④ |----|
8
⑤②⑤② |①---|
□①①□ |②---|
③③④④ |③-④-|
□⑤②□ |⑤---|
9
□④⑤□ |①--②|
①⑥⑦② |--③-|
④③⑨⑤ |④-⑤-|
①⑧③② |⑥⑦⑧⑨
10
①□④① |①---|
②□⑥② |②---|
③□□□ |③-④-|
⑤⑥□③ |⑤-⑥-|
11
□②□① |①-②-|
⑥①□③ |③-④-|
⑥④⑧⑤ |⑤-⑥-|
□□④⑦ |⑦-⑧-|
12
□①□① |①---|
□②⑤② |②---|
□③⑥④ |③-④-|
□⑤③□ |⑤-⑥-|
13
②④③① |①-②-|
□□□□ |--③-|
□□□□ |--④-|
②④③① |--⑤-|

□□□⑤
□□□⑤
□□□□
□□□⑤
14
①④⑥□ |①---|
□②②⑥ |②---|
①③③□ |③-④-|
①□⑤□ |⑤-⑥-|
15
①⑧□□ |①-②-|
③④⑥□ |③-④-|
⑤⑥④② |⑤-⑥-|
⑦①□□ |⑦-⑧-|
16
□⑥□① |①---|
③②⑤② |②---|
□④□③ |③-④-|
□□①⑤ |⑤-⑥-|
17
□□□① |①-②-|
⑧④□⑤ |③-④-|
⑥□②⑦ |⑤-⑥-|
③□□□ |⑦-⑧-|
18
④②①⑤ |①-②-|
□□③□ |③-④-|
□⑥□⑧ |⑤-⑥-|
□①□⑦ |⑦-⑧-|
19
④①④□ |①---|
③②③□ |②---|
②③②□ |③---|
①④①□ |④---|
20
□⑤□① |①-②-|
□②□③ |③-④-|
⑥□□⑧ |⑤-⑥-|
①□④⑦ |⑦-⑧-|
21
①④①□ |①---|
②③②□ |②---|
③②③□ |③---|
④①④□ |④---|
22
②□①□ |①---|
□③④□ |②---|
□④③□ |③-④-|
□②□① |--⑤-|

□⑤⑤□
□□□□
□□□□
□□□□
23
②⑤□① |①-②-|
③□□③ |--③-|
⑦□⑧⑥ |--④-|
①④④② |⑤⑥⑦⑧|
24
②⑧⑦① |①-②-|
⑥⑤④③ |③④⑤⑥|
⑫⑪⑩⑨ |⑦-⑧-|
②⑧⑦① |⑨⑩⑪⑫|
25
③②③② |①---|
□□□□ |----|
□□□□ |②---|
□③②① |③---|
26
□□□□ |①---|
①①①① |----|
□①①□ |----|
□□□□ |----|
27
□□□□ |----|
□□□□ |----|
□□□□ |----|
□□□□ |----|
28
□□□□ |----|
□□□□ |----|
□□□□ |----|
□□□□ |----|
29
□□□□ |----|
□□□□ |----|
□□□□ |----|
□□□□ |----|
30
□□□□ |----|
□□□□ |----|
□□□□ |----|
□□□□ |----|
31
□□□□ |----|
□□□□ |----|
□□□□ |----|
□□□□ |----|
32
□□□□ |----|
□□□□ |----|
□□□□ |----|
□□□□ |----|
33
□□□□ |----|
□□□□ |----|
□□□□ |----|
□□□□ |----|
34
①―<□ |①---|
>――② |----|
□□□□ |②---|
□□□□ |----|

2□□□
□□□□
□□□□
□□□□
35
□□□□ |①---|
□□□1 |----|
□□□□ |②---|
①――< |----|

□□□□
□□□□
>――②
2□□□
36
□□□□ |①---|
①――< |----|
□□□1 |----|
□□□□ |----|
37
□①①□ |----|
1□□□ |----|
□□□□ |①---|
□□□□ |----|
38
>――① |①---|
□□□□ |----|
□□□□ |②---|
□□□□ |----|

□□□2
②――<
□□□□
□□□□
39
□□□□ |①---|
1□□□ |----|
□□□□ |②---|
>――① |----|

②――<
□□□□
□□□□
□□□2
40
1□□□ |①---|
□□□□ |----|
>――① |----|
□□□□ |----|
41
□□□□ |----|
□①①□ |----|
□□□1 |①---|
□□□□ |----|
42
□□□□ |①---|
□□□□ |----|
□①①□ |----|
①――< |----|
43
□②②□ |①---|
□□□□ |----|
□□□□ |②---|
1□□□ |----|
44
□□□□ |①---|
>――① |----|
□①①□ |----|
□□□□ |----|
45
□②②□ |①---|
□□□1 |----|
□□□□ |②---|
□□□□ |----|
46
□□□□ |①---|
①――< |----|
□□□□ |②---|
①□□□ |----|

□□□②
2□□□
>――②
□□□□
47
①――< |①---|
□□□□ |----|
①□□1 |②---|
□□□□ |----|

2□□□
>――②
□□□□
□□□②
48
□∨∨□ |①---|
□||1 |----|
□①①□ |----|
□□□□ |----|
49
□□□□ |----|
□□□□ |----|
□□□□ |----|
□□□□ |----|
50
□□□□ |----|
□□□□ |----|
□□□□ |----|
□□□□ |----|
51
③②③② |①---|
①□□① |②---|
□11□ |----|
□③②□ |③---|
52
②①②① |----|
□□□□ |----|
□□□□ |①---|
□②①□ |②---|
53
□□□□ |①---|
□□④□ |②---|
□③□□ |③---|
②□□① |④---|
54
③⑦⑥□ |①②③④|
⑨⑭⑪④ |⑤⑥⑦⑧|
⑬⑩⑮⑫ |⑨⑩⑪⑫|
⑤①②⑧ |⑬⑭⑮-|
55
①⑤⑧⑫ |①②③④|
⑨⑭⑪④ |⑤⑥⑦⑧|
⑬⑩⑮□ |⑨⑩⑪⑫|
⑦③②⑥ |⑬⑭⑮-|
56
①⑤⑧□ |①②③④|
⑨⑭⑪⑫ |⑤⑥⑦⑧|
⑬⑩⑮② |⑨⑩⑪⑫|
⑦③④⑥ |⑬⑭⑮-|
57
①⑤⑥④ |①②③④|
⑨⑭⑪□ |⑤⑥⑦⑧|
⑬⑩⑮⑧ |⑨⑩⑪⑫|
⑦③②⑫ |⑬⑭⑮-|
58
①②③□ |①---|
⑥⑪⑧⑤ |②③④⑤|
⑩⑦⑫⑨ |⑥⑦⑧⑨|
④①□□ |⑩⑪⑫-|
59
①⑤④⑫ |①②③④|
⑨⑭⑪⑧ |⑤⑥⑦⑧|
⑬⑩⑮□ |⑨⑩⑪⑫|
⑦③⑥② |⑬⑭⑮-|
60
③⑦⑥□ |①②③④|
⑨⑭⑪⑫ |⑤⑥⑦⑧|
⑬⑩⑮② |⑨⑩⑪⑫|
⑤①⑧④ |⑬⑭⑮-|
61
③⑦④⑧ |①②③④|
⑨⑮⑩⑫ |⑤⑥⑦⑧|
⑬⑪⑭⑥ |⑨⑩⑪⑫|
⑤①⑯② |⑬⑭⑮⑯|
62
①④③□ |①---|
⑥⑪⑧□ |②③④⑤|
⑩⑦⑫⑨ |⑥⑦⑧⑨|
②①□⑤ |⑩⑪⑫-|
63
①⑤⑧⑫ |①②③④|
⑨⑭⑪④ |⑤⑥⑦⑧|
⑬⑩⑮□ |⑨⑩⑪⑫|
⑦③②⑥ |⑬⑭⑮-|
64
①⑤⑧□ |①②③④|
⑨⑭⑪⑫ |⑤⑥⑦⑧|
⑬⑩⑮② |⑨⑩⑪⑫|
⑦③④⑥ |⑬⑭⑮-|
65
①⑤⑥④ |①②③④|
⑨⑭⑪□ |⑤⑥⑦⑧|
⑬⑩⑮⑧ |⑨⑩⑪⑫|
⑦③②⑫ |⑬⑭⑮-|
66
①②③□ |①---|
⑥⑪⑧⑤ |②③④⑤|
⑩⑦⑫⑨ |⑥⑦⑧⑨|
④①□□ |⑩⑪⑫-|
67
①②□⑨ |①---|
⑥⑪⑧⑤ |②③④⑤|
⑩⑦⑫□ |⑥⑦⑧⑨|
④①□③ |⑩⑪⑫-|
68
①④③□ |①---|
⑥⑦⑥⑦ |②③④⑤|
□⑥⑦□ |⑥---|
②①⑤□ |⑦---|
69
③⑦⑧② |①②③④|
⑨⑬⑫⑯ |⑤⑥⑦⑧|
⑮⑪⑭⑥ |⑨⑩⑪⑫|
⑤①⑩④ |⑬⑭⑮⑯|
70
①――< |①-②-|
□□□□ |③-④-|
□□□□ |⑤-⑥-|
□□□□ |⑦-⑧-|

5□□④
□□□□
>――⑤
□③□②

□⑦□□
⑧□□□
□⑥□□
□□□□
71
□□□□ |①-②-|
□□□□ |③-④-|
□□□1 |⑤-⑥-|
①――< |⑦-⑧-|

□□④□
>――⑤
□□③□
5□□②

□⑧□□
⑧□□□
⑥⑦□□
□□⑦□
72
①――< |①-②-|
□□□1 |③-④-|
□□□□ |⑤-⑥-|
□□□□ |⑦-⑧-|

□□⑦□
□③②□
□⑧④⑥
□⑤□□
73
3□□□ |①-②-|
□④③□ |③-④-|
②□□□ |⑤-⑥-|
□□□① |⑦-⑧-|

>――⑤
□□□□
□□□□
□□□□

□□⑦□
□□□□
□⑧⑦□
⑧⑥□□
74
□□□1 |①-②-|
①――< |③-④-|
□□□□ |⑤-⑥-|
□□□□ |⑦-⑧-|

□③□□
5□④□
>――⑤
□□②□

□□□□
□⑥□□
⑦□□□
□⑧□□
75
□□□□ |①-②-|
□□□□ |③-④-|
□□□1 |⑤-⑥-|
①――< |⑦-⑧-|

□③□□
□□④□
□□②□
□□□□

>――⑤
□□□□
□□□□
5□□□

⑦□□□
□⑧□□
□⑥□□
□□□□
76
□□□1 |①-②-|
□□□□ |③-④-|
①――< |⑤-⑥-|
□□□□ |⑦-⑧-|

□⑥⑦□
□⑧⑤□
□□□④
□③②□
77
①③④① |①---|
②④③② |②---|
3□□□ |③---|
>――③ |④---|
78
①――< |①-②-|
□□□□ |③-④-|
□□□□ |⑤-⑥-|
□□□1 |⑦-⑧-|

□□□□
□□□□
□□②□
□③④□

5□□□
□□□□
>――⑤
□□□□

□□□□
⑥□⑦□
□⑧□□
□□□□
79
□□②□ |①-②-|
□③□□ |③-④-|
□□④1 |⑤-⑥-|
①――< |⑦-⑧-|

□□□□
>――⑤
□□□□
5□□□

□⑧□□
⑦□⑧□
⑦□□□
□□⑥□
80
①――< |①-②-|
□□□1 |③-④-|
□□□□ |⑤-⑥-|
□□□□ |⑦-⑧-|

□□□□
□④□□
□⑤③□
⑧②⑦⑥
81
3②④□ |①-②-|
□□①□ |③-④-|
□□□③ |⑤-⑥-|
□□□□ |⑦-⑧⑨|

>――⑤
□⑨⑧□
□⑥□□
□□□⑦
82
□①□1 |①-②-|
①――< |③-④-|
□□□□ |⑤-⑥-|
□□□□ |⑦-⑧-|

□□④□
□□□□
③□②□
□□③□

□□□□
5□□⑤
>――⑤
□□□□

⑧⑧□□
□□⑦□
□⑥□□
□⑥□□
83
□□□□ |①-②-|
□□□□ |③-④-|
□□①1 |⑤-⑥-|
①――< |⑦-⑧-|

□□③□
□□□④
②□□□
□□④②

>――⑤
□□□□
□□□□
5□□□

□⑦□□
⑥⑥□□
□⑧□□
□⑧□□
84
①□□1 |①-②-|
□□□□ |③④⑤⑥|
①――< |⑦-⑧-|
□□□□ |⑨⑩⑪⑫|

□⑨③□
⑦⑩④⑧
□⑪⑤□
□⑫⑥②
85
②□□① |①---|
□□□□ |----|
2□□① |②---|
□□□□ |----|
86
□∨□□ |①---|
□|①□ |----|
□①|□ |----|
□□∧□ |----|
87
①□□□ |----|
□□1□ |----|
□1□□ |①---|
□□□① |----|
88
□□①□ |①---|
□∨|□ |----|
□|∧□ |----|
□①□□ |----|
89
□□1□ |----|
>――① |----|
①――< |①---|
□1□□ |----|
90
□□∨□ |①---|
□①|1 |----|
1|①□ |②---|
□∧□□ |----|

>――②
□2□□
□□2□
②――<
91
□□□1 |①---|
>―①□ |----|
□①―<
1□□□
92
□□□□ |②---|
②――< |----|
>――②
□□□□

□□□□
□□2□
□2□□
□□□□
93
□∨①□ |①---|
1||□ |----|
□||1 |----|
□①∧□ |----|
94
□□□□ |----|
□□□□ |----|
□□□□ |----|
□□□□ |----|
95
□□□□ |----|
□□□□ |----|
□□□□ |----|
□□□□ |----|
96
□□□□ |----|
□□□□ |----|
□□□□ |----|
□□□□ |----|
97
□□1□ |①---|
□□□□ |----|
□□□□ |----|
□1□□ |----|
最終更新:2022年11月29日 05:09