アットウィキロゴ
BPM:180
1
□□□□ |----|
□□□□ |----|
□□□□ |----|
□□□□ |----|
2
⑬⑭⑮⑯ |①②③④|
③⑤⑩④ |⑤⑥⑦⑧|
⑪⑨②⑧ |⑨⑩⑪⑫|
①⑦⑫⑥ |⑬⑭⑮⑯|
3
□□□□ |①---|
①――< |②---|
□□□□ |③---|
①②③④ |④---|
4
□□□□ |①---|
□□□□ |②---|
□□□⑤ |③---|
①②③④ |④-⑤-|
5
□□□□ |①---|
□□□□ |②---|
□□□□ |③---|
①②□□ |④---|

□∨□□
3|□□
□③□□
□□③④
6
□□□□ |①---|
□>―① |②-③-|
□1□□ |④-⑤-|
①②□□ |⑥-⑦⑧|

□□□□
□③□3
□|⑤□
□∧④□

□□□□
□6⑧□
□□□⑦
□□□⑥
7
□□□□ |①---|
①――< |②-③-|
□□□□ |④---|
①②□□ |⑤---|

□∨□□
3|□□
□③□□
□□④□

□□□□
――⑤
□5□□
□□□⑤
8
□□□□ |①---|
□□□□ |②---|
□□□⑤ |③---|
①②③④ |④-⑤-|
9
□∨□□ |①---|
□|□3 |②---|
□③□□ |③---|
①②③④ |④---|
10
□□□① |①-②-|
②□□| |③-④-|
□1□| |⑤-⑥-|
①③□∧ |⑦-⑧⑨|

□⑧⑨4
□④⑥□
□□□□
□□⑤⑦
11
∨□□∨ |①---|
|□□| |②---|
①□□① |③---|
□□□□ |④---|

□□④②
□□□③
□③□□
□□□□
12
□②⑤④ |①---|
③①③□ |②---|
□□①□ |③---|
□□□□ |④-⑤-|
13
④□□□ |①---|
□③□② |②---|
□①③□ |③---|
□□□□ |④---|
14
□□□③ |①---|
①□①③ |②---|
1□□1 |③---|
④②□⑤ |④-⑤-|
15
①――< |①-②-|
□□□□ |③-④-|
□□□□ |⑤-⑥-|
□□□□ |⑦-⑧-|

5①②□
□③④□
⑤――<
□□□□

□□□□
⑦□□□
7⑤⑥□
□⑦⑧□
16
――① |①-②-|
□□□□ |③-④-|
□□□□ |⑤-⑥-|
□□□□ |⑦-⑧-|

□①②5
□③④□
――⑤
□□□□

□□□□
□□□⑦
□⑤⑥7
□⑦⑧□
17
①――< |①-②-|
□□□□ |③-④-|
□□□□ |⑤-⑥-|
□□□□ |⑦-⑧-|

5①②□
□③④□
⑤――<
□□□□

□□□□
⑦□□□
7⑤⑥□
□⑦⑧□
18
――① |①-②-|
□□□□ |③-④-|
□□□□ |⑤-⑥-|
□□□□ |⑦-⑧-|

□①②3
□③④□
――③
□□□□

□□□□
――⑤
□⑤⑥5
□□□□

□□□□
□□□7
□□□□
――⑦

□□□□
□□□□
□□□□
□⑦⑧□
19
①②③④ |①②③④|
□□□⑧ |-⑤-⑥|
□⑦⑨⑤ |-⑦⑧-|
⑥□⑩1 |⑨-⑩-|
20
□□②③ |①-②③|
□①□□ |-④-⑤|
□□□□ |----|
⑤□□④ |----|
21
④③②① |①②③④|
⑧□□□ |-⑤-⑥|
⑤□⑦⑨ |-⑦⑧-|
□⑩□⑥ |⑨-⑩-|
22
⑥②③⑤ |①-②③|
□□①□ |--④-|
□④④□ |--⑤-|
□⑥⑤□ |-⑥--|
23
□□⑦□ |①②③④|
①②③④ |-⑤-⑥|
⑧⑥□⑨ |--⑦-|
□□□⑤ |⑧-⑨-|
24
□③⑤④ |①-②③|
④②□⑤ |--④-|
⑥⑥④□ |--⑤-|
□①①□ |⑥-⑦-|

□□□□
□□⑦□
□□□□
□□⑦□
25
②①□③ |①--②|
□①□□ |--③-|
□□□□ |----|
②□□③ |----|
26
□□□□ |----|
□□□□ |----|
□□□□ |----|
□□□□ |----|
27
①②③④ |①②③④|
|□□□ |-⑤-⑥|
|□□□ |⑦⑧--|
∧□□□ |⑨-⑩-|

□□□□
□□⑧⑤
⑦□□⑨
□⑥⑩□
28
5□②③ |①-②③|
□①□□ |-④⑤⑥|
□□□□ |----|
⑥□□④ |----|
29
④③②① |①②③④|
□□□| |-⑤-⑥|
□□□| |-⑦⑧-|
□□□∧ |⑨-⑩-|

□□□□
⑤⑧□□
⑨□□⑦
□⑩⑥□
30
③②□4 |①-②③|
⑥□①⑤ |④-⑤-|
□⑤□⑦ |--⑥-|
⑦□⑥□ |-⑦--|
31
①②③④ |①②③④|
□□⑦⑤ |-⑤-⑥|
⑧――< |--⑦-|
□⑥□⑨ |⑧-⑨-|
32
□④④⑤ |①-②③|
□⑥□③ |--④-|
□□②⑦ |--⑤-|
①□□□ |⑥-⑦-|
33
□③②□ |①--②|
②④⑤③ |--③-|
3③②□ |----|
□①①□ |--④⑤|
34
②④③① |①---|
□□□□ |②---|
②④③① |③---|
②④③① |④---|
35
②□⑤① |①--②|
④①①② |--③-|
⑤□④④ |④--⑤|
③⑥③⑥ |--⑥-|
36
②④⑤① |①--②|
⑤④②① |--③-|
□①□④ |④--⑤|
③⑥③⑥ |--⑥-|
37
②□□① |①--②|
□④②① |--③-|
①③⑥③ |--④-|
③⑤③□ |⑤-⑥-|
38
□①⑦① |①-②-|
②⑥②⑦ |③-④-|
⑤③⑥③ |--⑤-|
④⑤④□ |⑥-⑦-|
39
①②⑧③ |--①②|
⑧□□⑨ |③-④⑤|
⑦□□⑨ |⑥-⑦-|
④⑤⑦⑥ |⑧-⑨-|
40
①⑥□□ |--①-|
⑤②①⑥ |②-③-|
④③②⑤ |--④-|
□□④③ |⑤-⑥-|
41
③□□⑥ |--①②|
⑨⑤②⑫ |③-④⑤|
□⑪⑧□ |⑥-⑦⑧|
①⑦⑩④ |⑨⑩⑪⑫|
42
③①②④ |①--②|
□□□□ |--③-|
①□□② |④---|
③□□④ |----|
43
③①②④ |①---|
①③④② |②---|
②□□① |③---|
④□□③ |④---|
44
④①③⑤ |①---|
①□□③ |②---|
③②②① |③--④|
④③①⑤ |--⑤-|
45
⑥⑤④□ |--①-|
①□②③ |②-③-|
③①□② |④--⑤|
⑥⑤④□ |--⑥-|
46
□⑦□② |①-②-|
⑦①⑤⑥ |③④⑤⑥|
③④□⑧ |⑦-⑧-|
⑪⑩⑨① |⑨⑩⑪-|
47
⑨⑥⑦① |①-②③|
⑧④⑤⑧ |④⑤⑥⑦|
⑨②③□ |⑧--⑨|
□⑨□□ |--⑩-|

□□□⑩
□□□□
□□□⑩
□□⑩□
48
⑤④③⑤ |①---|
③⑤⑤④ |②---|
③①①④ |③--④|
②□□② |--⑤-|
49
□⑤⑥□ |--①-|
□⑤⑥□ |②-③-|
⑤①③⑥ |④--⑤|
□②④□ |--⑥-|
50
①⑦□④ |①-②③|
⑥□⑨③ |--④-|
⑧②⑤□ |⑤⑥--|
①⑦□④ |⑦-⑧⑨|
51
⑧□①⑨ |--①-|
⑥③□⑦ |②③--|
□⑩⑪② |④⑤⑥⑦|
④□①⑤ |⑧⑨⑩⑪|
52
□□□□ |①-②-|
⑦③②⑥ |③-④-|
⑤□□⑧ |⑤-⑥-|
□①④□ |⑦-⑧-|
53
⑦③④⑧ |①②③④|
⑬⑫⑪⑩ |⑤⑥⑦⑧|
⑨⑤⑥□ |⑨--⑩⑪⑫|
①□□② |⑬--⑭⑮⑯|

□□□□
□□□□
□□□□
□⑯⑮⑭
54
∨□□□ |①---|
|□□□ |----|
|□□□ |②---|
①□□□ |----|

□□②□
□□□□
――②
2□□□
55
□□□□ |①---|
①――< |----|
□□□1 |②---|
□①□□ |----|

――②
2□□□
□□②□
□□□□
56
□③②1 |①---|
②□①③ |--②-|
③①□② |----|
□②③□ |③---|
57
④□③⑧ |①---|
⑤①①⑨ |----|
⑥①①⑩ |②-③-|
⑦②□⑪ |④⑤⑥⑦⑧⑨⑩⑪|
58
④①□□ |①---|
□③□□ |----|
□□②□ |②---|
④□□□ |③-④-|
59
□④①□ |①---|
□□③□ |----|
□②□□ |②---|
□④①□ |③-④-|
60
②⑤③① |①---|
□④□□ |--②-|
□□③□ |③---|
②⑤③① |④-⑤-|
61
⑦□⑧① |①-②-|
②□③⑥ |③-④-|
⑤④□□ |⑤-⑥-|
□□□① |⑦-⑧-|
62
⑬⑫⑪⑩ |①②③④|
⑦③④⑧ |⑤⑥⑦⑧|
⑨⑤②⑥ |⑨--⑩⑪⑫|
①⑯⑮⑭ |⑬--⑭⑮⑯|
63
⑤③⑤③ |①---|
②⑤③④ |②---|
⑤③⑤③ |③--④|
①□□□ |--⑤-|
64
⑥④⑤③ |--①-|
①⑤④⑥ |②-③-|
⑥④□⑤ |④--⑤|
⑤②④⑥ |--⑥-|
65
□⑤□⑥ |①-②-|
①⑪⑩⑨ |③④⑤⑥|
□□②⑧ |⑦-⑧-|
⑦③④□ |⑨⑩⑪-|
66
①⑥⑦□ |①-②③|
⑧□□□ |④⑤⑥⑦|
①④⑤⑧ |⑧--⑨|
□②③□ |--⑩-|

⑩□□⑨
□□□□
□□□□
⑩□□⑨
67
⑤②③④ |①---|
③①①② |②---|
②□□③ |③--④|
⑤③②④ |--⑤-|
68
□⑤⑥□ |--①-|
③①②④ |②-③-|
④②①③ |④--⑤|
□⑥⑤□ |--⑥-|
69
④□⑦① |①-②③|
③⑨□⑥ |--④-|
□⑤②⑧ |⑤⑥--|
④□⑦① |⑦-⑧⑨|
70
⑨①□⑧ |--①-|
⑦□③⑥ |②③--|
②⑪⑩□ |④⑤⑥⑦|
⑤①□④ |⑧⑨⑩⑪|
71
□②∨□ |①---|
□||□ |--②-|
□∧|□ |----|
□□①□ |③---|

□3□□
□□□□
□□□□
□□3□
72
④⑮⑦⑫ |①②③④|
⑥⑪⑯③ |⑤⑥⑦⑧|
⑩⑬⑤⑨ |⑨⑩⑪⑫|
②⑧⑭① |⑬⑭⑮⑯|
73
①□□□ |①---|
②□□③ |②---|
③□□□ |③---|
④□□③ |④---|
74
①□①□ |①---|
②□□③ |②---|
③□□① |③---|
④□③□ |④---|
75
①□□① |①---|
②□③□ |②---|
③□①□ |③---|
④□□③ |④---|
76
①□①□ |①-②-|
□⑤□□ |③-④-|
□②③□ |⑤--⑥⑦⑧|
□□④□ |⑨--⑩⑪⑫|

⑩□□⑥
⑪□□⑦
⑫□□⑧
□□□⑨
77
□□□□ |①---|
□□□□ |----|
□□□□ |----|
①□□□ |----|
最終更新:2022年11月16日 08:24