アットウィキロゴ
BPM:180
1
□□□□ |----|
□□□□ |----|
□□□□ |----|
□□□□ |----|
2
③⑤⑥④ |①②③④|
⑨□□⑩ |⑤⑥⑦⑧|
⑪□□⑫ |⑨⑩⑪⑫|
⑦①②⑧ |⑬⑭⑮⑯⑰⑱|

□□□□
□⑬⑯□
□⑭⑰□
□⑮⑱□
3
①――< |①---|
□□□□ |②---|
□□□□ |③---|
□□□□ |④---|

□③□③
□□□□
□□□□
□□④②
4
□□①□ |①---|
①□□③ |②---|
□③⑤□ |③---|
□□④② |④-⑤-|
5
3①③① |①---|
□□|□ |②---|
□□∧③ |③---|
□④□② |④---|

6
□□1□ |①---|
①―<□ |②-③-|
□□□□ |④-⑤-|
①□□□ |⑥-⑦⑧|

□>―③
3□□□
④□□⑤
□□②□

⑦⑧□6
□⑥⑥□
□□□□
□□□□
7
□□①□ |①---|
□□|□ |②-③-|
□□|□ |④---|
□□∧□ |⑤---|

□□3□
④>―③
□④□□
□②□□

□□∨□
□□|5
□□⑤□
⑤□□□
8
③①□③ |①---|
□□□□ |②---|
①④□□ |③---|
□②□□ |④---|
9
□①□③ |①---|
①④□| |②---|
③□3∧ |③---|
②③□□ |④---|
10
□①□1 |①-②-|
①|□□ |③-④-|
□∧□① |⑤-⑥-|
□□□□ |⑦--⑧⑨⑩|

⑤5⑦□
□□②□
□③⑤□
□□④⑥

□□□□
⑧⑨⑩□
□□□□
□□□□
11
④③□□ |①---|
□□□① |②---|
②③□| |③---|
□②④∧ |④---|
12
④⑤□□ |①---|
②③□□ |②---|
③□①□ |③---|
①②□④ |④-⑤-|
13
□□①□ |①---|
③④□□ |②---|
□□③① |③---|
②②④□ |④---|
14
∨∨□□ |①---|
||□1 |②-③-|
①①□□ |④-⑤-|
□□□□ |⑥-⑦⑧|

⑦⑧□⑥
□□④□
33⑤□
□□□②
15
□□②□ |①-②-|
⑦⑧⑤① |③-④-|
③④⑥□ |⑤-⑥-|
③⑦①⑤ |⑦-⑧-|
16
③④②① |①-②-|
⑥⑦⑧⑤ |③-④-|
③□⑩① |⑤-⑥⑦|
□⑨⑤□ |⑧-⑨⑩|
17
⑪⑦⑧④ |①②③④|
□⑨□⑥ |⑤⑥⑦⑧|
⑤①□⑩ |⑨⑩⑪-|
③□□② |⑫⑬⑭⑮|

□□□□
□□□□
□⑭⑮□
□⑫⑬□
18
⑩⑤⑫④ |①②③④|
⑨⑥⑬③ |⑤⑥⑦⑧|
②□⑭⑦ |⑨⑩⑪-|
①⑪⑮⑧ |⑫⑬⑭⑮--|
19
□⑪⑨④ |①②③④|
□⑧⑩③ |⑤⑥-⑦|
②⑤□⑥ |⑧⑨⑩-|
①⑦⑫□ |⑪-⑫-|
20
①□⑥⑤ |①-②③|
④□□③ |④⑤-⑥|
⑦□②□ |⑦---|
⑧□□□ |⑧---|
21
①②⑦⑥ |①②③④|
□⑧⑩④ |⑤⑥-⑦|
□⑤③⑫ |⑧⑨⑩-|
□⑪⑨□ |⑪-⑫-|
22
①□⑤⑤ |①-②③|
④⑦□③ |④-⑤-|
⑥⑦②□ |⑥-⑦-|
⑧□⑨⑨ |⑧⑨--|
23
①②⑥④ |①②③④|
□⑩③⑨ |⑤⑥-⑦|
⑧□□⑦ |⑧-⑨-|
□⑤⑪□ |⑩-⑪-|
24
①⑤⑤③ |①-②③|
④□②⑦ |④-⑤-|
⑥⑧⑧⑦ |⑥-⑦-|
⑧□⑨⑨ |⑧-⑨-|
25
①④④② |①--②|
③②①□ |③-④-|
⑤□□□ |⑤---|
⑥□□□ |⑥---|
26
□③③□ |①-②-|
⑤□②④ |③-④⑤|
⑦⑨⑨⑥ |⑥⑦⑧-|
□①□⑧ |⑨---|
27
①③⑥⑦ |①②③④|
⑤①⑩④ |⑤⑥-⑦|
⑧□⑨□ |⑧⑨⑩-|
□⑤②□ |⑪-⑫-|

□□□□
□□□□
□□□⑪
⑪□⑫□
28
①□③⑤ |①-②③|
④②□□ |④⑤-⑥|
⑦①⑥□ |⑦---|
⑧□□□ |⑧---|
29
①③⑥⑦ |①②③④|
⑤①⑩④ |⑤⑥-⑦|
⑧□⑨□ |⑧⑨⑩-|
□⑤②□ |⑪-⑫-|

□□□□
□□□□
□□□⑪
⑪□⑫□
30
①□③⑤ |①-②③|
④②⑦⑤ |④-⑤-|
⑥①⑦□ |⑥-⑦-|
□□□□ |⑧⑨--|

□□□□
□□□□
□⑨□□
⑧□□⑨
31
①③⑥⑦ |①②③④|
⑤①⑨④ |⑤⑥-⑦|
⑧□□□ |⑧-⑨-|
□⑤②□ |⑩-⑪-|

□□□□
□□□□
□□□⑩
⑩□⑪□
32
①⑤③⑦ |①-②③|
④②⑧⑦ |④-⑤-|
⑥①⑤□ |⑥-⑦-|
⑧⑧⑨⑨ |⑧-⑨-|
33
①②④□ |①--②|
③①□□ |③-④-|
⑤④②① |⑤---|
⑥⑧⑦□ |⑥-⑦⑧|
34
①③□① |①---|
②④②④ |②---|
③□①③ |③---|
④□④② |④---|
35
①□②① |①--②|
③□⑥□ |③-④-|
⑤□①⑤ |⑤--⑥|
⑦□⑧④ |⑦-⑧-|
36
①□①② |①--②|
③□⑥① |③-④-|
⑤□④⑤ |⑤--⑥|
⑦□□⑧ |⑦-⑧-|
37
①①②② |①--②|
③□⑥① |③-④-|
⑤④④⑧ |⑤-⑥-|
⑦□⑦□ |⑦-⑧-|
38
①□②□ |①-②-|
③□□① |③-④-|
⑤□③□ |⑤-⑥-|
□□⑥④ |⑦-⑧-|

□□□□
□□⑦⑧
□□□□
⑦□□□
39
①⑤⑥⑦ |①-②③|
④□□⑨ |④-⑤⑥|
⑦②③④ |⑦-⑧-|
⑨①⑧⑩ |⑨-⑩-|
40
①□⑧④ |①-②-|
③□②⑦ |③-④-|
⑤□⑥③ |⑤-⑥-|
⑦①□□ |⑦-⑧-|
41
①④□⑦ |①-②③|
④②③□ |④-⑤⑥|
⑩⑥⑪⑦ |⑦-⑧⑨|
⑧①⑤⑨ |⑩⑪⑫⑬|

⑫□□□
□□□⑬
□□□□
□□□□
42
□②①③ |①--②|
④①②□ |--③-|
□③⑤④ |④---|
④③□④ |⑤---|
43
⑤①④⑨ |①---|
⑥□①⑩ |②---|
⑦②□⑪ |③-④-|
⑧③②⑫ |⑤⑥⑦⑧⑨⑩⑪⑫|
44
⑤③④⑤ |①---|
□①①□ |②---|
⑤②②⑤ |③--④|
□④③□ |--⑤-|
45
□⑩⑨⑧ |--①-|
①③④② |②-③-|
□④③⑦ |④-⑤⑥|
②⑥⑤① |⑦--⑧⑨⑩|
46
①□□□ |①-②-|
⑦□④⑥ |③④⑤⑥|
③⑤□⑨ |⑦-⑧-|
⑧⑪⑩② |⑨⑩⑪-|
47
⑥⑦⑧⑨ |①-②③|
⑩②③⑪ |④--⑤--⑥-⑦-⑧-|
⑩④⑤⑪ |⑨--⑩|
□⑩⑪① |--⑪-|
48
□⑥⑤□ |①-②-|
⑦①③⑦ |③-④-|
⑦④②⑦ |⑤--⑥|
①⑤⑥③ |--⑦-|
49
②④③① |--①-|
□⑩⑨⑧ |②-③-|
□③④⑦ |④-⑤⑥|
①⑥⑤② |⑦--⑧⑨⑩|
50
⑥□⑨③ |①-②③|
①□□□ |--④-|
⑦④④⑦ |⑤⑥--|
⑤□⑧② |⑦-⑧⑨|
51
⑧③□⑨ |--①-|
①④⑦① |②③--|
□⑥⑤□ |④⑤⑥⑦|
⑩②□⑪ |⑧⑨⑩⑪|
52
□□□□ |①-②-|
②⑥⑧④ |③-④-|
①⑤⑦③ |⑤-⑥-|
□□□□ |⑦-⑧-|
53
⑤①⑩⑧ |①②③④|
⑨□⑪④ |⑤⑥⑦⑧|
⑦□⑫⑥ |⑨--⑩⑪⑫|
□③⑬② |⑬--⑭⑮⑯|

□⑭□□
□⑮□□
□⑯□□
□□□□
54
④□□□ |①---|
③□□③ |②---|
②□③□ |③---|
①①□③ |④---|
55
□①①③ |①---|
□②①③ |②---|
□③③① |③---|
□④□□ |④---|
56
①②□④ |①-②-|
③④⑦□ |③-④-|
⑤⑥④⑦ |⑤-⑥-|
⑦⑧①① |⑦-⑧-|
57
①①□③ |①---|
⑪⑩⑨⑧ |----|
⑦⑥⑤④ |②-③-|
□□①② |④⑤⑥⑦⑧⑨⑩⑪|
58
□①①□ |①---|
□□|□ |----|
□□∧□ |②---|
□□□□ |③-④-|

□□2□
□□□□
□□□□
□□>②

□□□□
□□③<
□□□□
④④□3
59
□□□① |①---|
①①1| |----|
□□□∧ |②---|
□□□□ |③-④-|

□□□2
□□□□
□□□□
□□②<

□□□□
□□>③
④④□□
□□3□
60
①①①□ |①---|
□□|1 |--②-|
□□∧□ |③---|
②②□□ |④-⑤-|

□□3□
③③□□
□□>③
□□□□

□□□□
□□④<
⑤⑤□4
□□□□
61
①②④① |①-②-|
□□1| |③-④-|
□□③| |⑤-⑥-|
□□□∧ |⑦-⑧-|

□□□7
⑤⑥□⑧
□□□⑦
□□□□
62
⑦□④⑩ |①②③④|
⑨□⑧⑪ |⑤⑥⑦⑧|
⑤③②⑫ |⑨--⑩⑪⑫|
①□⑥⑬ |⑬--⑭⑮⑯|

□⑭□□
□⑮□□
□⑯□□
□□□□
63
③⑤⑤④ |①---|
□□□③ |②---|
③⑤②⑤ |③--④|
①①③□ |--⑤-|
64
⑦⑧⑦⑧ |--①-|
⑥⑤④③ |②--③④⑤|
⑦□①⑧ |⑥--⑦|
②②□① |--⑧-|
65
⑨□⑧□ |①-②-|
⑩⑤□⑥ |③④⑤⑥|
⑪①①□ |⑦-⑧-|
③⑦④② |⑨⑩⑪-|
66
□⑨⑧① |①-②③|
□⑦□⑥ |④⑤⑥⑦|
⑨⑤④⑧ |⑧--⑨|
③⑧⑨② |--⑩-|

⑩□□⑩
□□⑩□
□□□□
□□□□
67
□□□□ |①-②-|
①⑥□③ |③-④-|
⑥⑤⑤⑥ |⑤--⑥|
②□□④ |--⑦-|

□□□⑦
⑦□□□
□□□□
□⑦□□
68
②②①□ |--①-|
□□①□ |②-③-|
④⑤⑤□ |④--⑤|
④□③③ |---⑥⑦⑧|

□□□□
□⑧⑦⑥
□□□□
□□□□
69
⑨③⑥④ |①-②③|
①⑦□□ |--④-|
□⑦□④ |⑤⑥--|
⑧②⑤□ |⑦-⑧⑨|
70
□⑧⑨③ |--①-|
④□①⑦ |②③--|
□□①□ |④⑤⑥⑦|
□⑥⑤② |⑧⑨⑩⑪|

□□□□
□⑩⑪□
□□□□
□□□□
71
□□□⑧ |①-②-|
⑤□□□ |③-④-|
⑦③④□ |⑤-⑥-|
①□⑥② |⑦-⑧-|
72
⑤①⑪□ |①②③④|
⑥②⑫□ |⑤⑥⑦⑧|
⑩⑧⑬③ |⑨--⑩--⑪-⑫-⑬-|
⑨⑦⑭④ |⑭--⑮--⑯-⑰-⑱-|

□⑮□⑯
□□□⑰
□□□⑱
□□□□
73
□□□□ |①--②|
□□□□ |----|
□□□□ |③--④|
>――① |----|

④□④□
③②□□
□③□□
□②□□
74
□①□□ |①--②|
③④□④ |----|
□□①□ |③--④|
②③②□ |----|
75
②③□□ |①--②|
□□①□ |----|
②①③□ |③--④|
④□④1 |----|
76
□□□① |①-②-|
⑨⑧⑦⑥ |③-④-|
④□⑤③ |⑤--⑥⑦⑧|
□②□□ |⑨--⑩⑪⑫|

⑩⑪⑫□
□□□□
□□□□
⑩⑪⑫□
77
□□□① |①---|
□□□□ |----|
□□□□ |----|
□□□① |----|
最終更新:2022年11月16日 08:24