アットウィキロゴ
1
□□④④ |①②③-|
□③□□ |④-⑤⑥|
□□②□ |-⑦-⑧|
□①□□ |⑨-⑩-|

⑦⑦⑩⑩
□□□□
⑨□□⑥
⑤□□⑧
2
④④□□ |①②③-|
□□③□ |④-⑤⑥|
□②□□ |-⑦-⑧|
□□①□ |⑨-⑩-|

⑩⑩⑦⑦
□□□□
⑥□□⑨
⑧□□⑤
3
□□□□ |①②③④|
⑧②□⑤ |⑤⑥⑦⑧|
□④⑦□ |⑨⑩⑪⑫|
⑥□①③ |⑬⑭⑮⑯|

⑯⑩□⑬
□□⑪□
⑭□□⑨
□⑫⑮□
4
□④①⑦ |①②③④|
□⑧□□ |⑤⑥⑦⑧|
□②⑤□ |⑨⑩⑪⑫|
⑥□□③ |⑬---|

⑩□□□
□□⑪□
□□□□
□⑫⑨⑬
5
□□④④ |①②③-|
③□□□ |④-⑤⑥|
□□□② |-⑦-⑧|
①□□□ |⑨-⑩-|

⑦⑦⑩⑩
□□□□
□⑨⑥□
□⑤⑧□
6
④④□□ |①②③-|
□□□③ |④-⑤⑥|
②□□□ |-⑦-⑧|
□□□① |⑨-⑩-|

⑩⑩⑦⑦
□□□□
□⑥⑨□
□⑧⑤□
7
□□□⑤ |①②③④|
⑧④③□ |⑤⑥⑦⑧|
②□□⑦ |⑨⑩⑪⑫|
⑥□□① |⑬⑭⑮⑯|

⑫⑯⑬□
□□□⑪
□⑩⑮□
□⑭⑨□
8
□□□⑦ |①②③④|
⑧④①□ |⑤⑥⑦⑧|
②⑥□⑤ |⑨⑩⑪⑫|
□□□③ |⑬---|

⑩□□□
□□□⑬
⑫□⑨□
□□⑪□
9
③④②① |①-②-|
□②①⑤ |③④-⑤|
⑥⑦②① |⑥⑦-⑧|
□□□□ |⑨-⑩-|

□□⑨⑩
□⑨⑩□
□□⑨⑩
□□□⑧
10
①②□□ |①②-③|
④⑤□③ |④-⑤-|
□④⑤□ |⑥⑦-⑧|
④⑤□□ |⑨⑩-⑪|

⑪□⑩⑨
□□□□
⑧□□□
□□⑦⑥
11
□□□□ |①-②-|
②①□□ |③④-⑤|
⑤②①□ |⑥⑦⑧⑨|
②①④③ |⑩---|

□⑦⑥□
□⑨⑧□
□□⑩□
□□□□
12
⑥□□⑥ |①---|
□□□□ |----|
②③④⑤ |②③④⑤|
①①□□ |⑥---|
13
□⑤□□ |①-②-|
①□④① |③④⑤-|
□□□□ |⑥-⑦-|
③①①② |⑧⑨⑩-|

□□⑩□
□⑨□□
□⑦□⑥
□□□⑧
14
①□□□ |①-②-|
□□□□ |③-④-|
③③③□ |⑤-⑥-|
□□②④ |⑦-⑧-|

⑦⑦⑦⑥
⑤⑤⑤□
□□⑧□
□□□□
15
⑤□□□ |①-②-|
□□④□ |③④⑤-|
□③□□ |⑥-⑦-|
①①①② |⑧⑨⑩-|

□□□□
⑩⑦□⑩
□□⑥□
□⑨⑧□
16
□□②① |①---|
□□□□ |②---|
①□②① |③---|
□□□□ |④---|

④③□□
□□□□
④③□□
□□□□
17
□□⑤□ |①-②-|
①④□① |③④⑤-|
□□□□ |⑥-⑦-|
②①①③ |⑧⑨⑩-|

□⑩□□
□□⑨□
⑥□⑦□
⑧□□□
18
□□①□ |①-②-|
②□□□ |③-④-|
□□□□ |⑤-⑥-|
④③③③ |⑦-⑧-|

⑥□□□
□⑦⑦⑦
□⑤⑤⑤
□⑧□□
19
□①①① |①-②-|
⑩⑥⑤⑩ |③④⑤-|
④□⑦□ |⑥-⑦-|
②⑧⑨③ |⑧⑨⑩-|
20
①②□□ |①---|
□□□□ |②---|
①②□① |③---|
□□□□ |④---|

□□③④
□□□□
□□③④
□□□□
21
①②③□ |①--②|
□□□□ |--③-|
②□□③ |④⑤⑥⑦|
□③②① |⑧⑨⑩⑪|

⑧□□④
□⑨⑤□
□⑥⑩□
⑦□□⑪
22
③□□② |①--②|
①□③□ |--③-|
②③□① |④⑤⑥⑦|
□②□□ |⑧⑨⑩⑪|

□⑧④□
⑨□□⑤
⑩□□⑥
□⑪⑦□
23
④□□□ |①②③④|
⑧②③⑤ |⑤⑥⑦⑧|
□⑥□⑦ |⑨⑩⑪⑫|
□□□① |⑬⑭⑮⑯|

⑯⑫⑨⑬
□⑭□□
□□⑪□
⑩□⑮□
24
□⑫⑥□ |①-②-③-|
⑨⑪⑤③ |④-⑤-⑥-|
⑧⑩④② |⑦-⑧-⑨-|
⑦□□① |⑩-⑪-⑫-|
25
□⑤⑥① |①--②|
③□①② |--③-|
□□④③ |-④--|
②⑥⑤④ |⑤--⑥|
26
④⑤□□ |--①-|
③④③□ |-②--|
②①□⑤ |③--④|
①□□② |--⑤-|
27
③□①② |-①--|
□④②③ |②--③|
□□⑤④ |--④-|
□①□⑤ |-⑤--|
28
□⑤⑤② |①--②|
①④④□ |--③-|
□③□□ |④-⑤-|
③②①□ |⑥⑦⑧⑨|

□□□□
⑧□□⑨
⑥□□⑦
□□□□
29
①□□□ |①---|
□□□□ |----|
□□□□ |----|
□□□□ |----|
30
□□⑦④ |①②③-|
③⑥□□ |④-⑤⑥|
⑤②④⑦ |-⑦-⑧|
①□□□ |⑨-⑩-|

□□□⑩
□□⑩□
□⑨□□
⑧□□□
31
□④⑥□ |①②③-|
□□□③ |④-⑤⑥|
④□②⑤ |-⑦⑧⑨|
□□□① |⑩⑪⑫-|

⑨□□⑫
□⑪⑧□
□⑦⑩□
□□□□
32
□□□□ |①---|
□□□□ |--②③|
②③④□ |④--⑤|
①□□① |--⑥-|

⑤□□⑤
□□□□
□□□□
⑥□□⑥
33
⑤①①□ |①---|
⑥□④□ |--②③|
⑦③□⑨ |④--⑤⑥⑦|
⑧□②□ |⑧-⑨-|
34
⑤①①⑤ |①---|
□④□□ |--②③|
□□③□ |④--⑤|
⑥②□⑥ |--⑥-|
35
□□③□ |①---|
□□①□ |----|
□①□④ |②-③④|
②□□② |⑤⑥⑦⑧⑨⑩|

□□□□
□⑨⑩□
□⑦⑧□
□⑤⑥□
36
①①②□ |①---|
②□④② |--②-|
□③□③ |--③-|
④□③④ |--④-|
37
④⑤③□ |①--②|
□②⑤③ |--③-|
①⑤②□ |④---|
□①⑤④ |⑤---|
38
⑨⑩④③ |①②③④⑤⑥|
⑤⑥⑫⑪ |⑦⑧⑨⑩⑪⑫|
⑬⑭⑧⑦ |⑬⑭⑮⑯⑰⑱|
①②⑯⑮ |⑲⑳ABCD|

□□⑳⑲
AB□□
□□DC
⑰⑱□□
39
⑤①□□ |①②③④|
□□②⑥ |⑤⑥⑦⑧|
③⑦□□ |⑨⑩⑪⑫|
□□⑧④ |⑬⑭⑮⑯|

□□⑯⑫
⑪⑮□□
□□⑩⑭
⑬⑨□□
40
⑤□□⑤ |----|
□④□□ |--①②|
①②③□ |③--④|
□□④□ |--⑤-|
41
□□□□ |①---|
□④□□ |--②③|
①□③① |④--⑤⑥⑦|
□②□□ |⑧-⑨-|

□□□⑤
□□□⑥
□□□⑦
⑨□□⑧
42
④①①④ |①---|
□□□□ |--②③|
□③□□ |④--⑤|
□□②□ |--⑥-|

□□⑤□
⑤□□□
□□□⑥
□⑥□□
43
⑤□□④ |①---|
⑦①①⑥ |--②③|
⑨③□⑧ |④⑤⑥⑦|
⑪□②⑩ |⑧⑨⑩⑪|
44
□④□⑤ |①②③④|
□⑧③□ |⑤⑥⑦⑧|
□②⑦□ |⑨⑩⑪⑫|
□⑥①□ |⑬⑭⑮⑯|

□□⑬□
⑫□⑮⑨
□⑭□⑪
⑩⑯□□
45
④□□⑤ |①②③④|
□⑧□③ |⑤⑥⑦⑧|
②□⑦□ |⑨⑩⑪⑫|
⑥□□① |⑬⑭⑮⑯|

□⑫⑨□
⑭□⑪⑬
⑯⑩□⑮
□□□□
46
④⑧③⑤ |①②③④|
□②□□ |⑤⑥⑦⑧|
□□⑦□ |⑨⑩⑪⑫|
□⑥①□ |⑬⑭⑮⑯⑰⑱|

□□□□
⑯⑫⑨⑬
⑰⑩□⑭
⑱□⑪⑮
47
⑥②①⑦ |①②③④|
⑬□③⑧ |⑤--⑥--⑦-⑧-⑨-|
□□⑤⑨ |⑩⑪⑫⑬|
⑪④⑫⑩ |⑭⑮⑯⑰⑱⑲|

□⑮⑭□
□⑰⑯□
□⑲⑱□
□□□□
48
②⑩⑦① |①②③④|
□□⑨□ |⑤⑥⑦⑧|
⑥⑫⑪③ |⑨⑩⑪⑫|
⑧④□⑤ |⑬⑭⑮⑯⑰⑱|

⑭□□⑬
⑯□□⑮
⑱□□⑰
□□□□
49
⑫④⑦⑫ |①②③④|
⑪⑥③⑪ |⑤⑥⑦⑧|
⑩⑧⑤⑩ |⑨-⑩-⑪-|
⑨②①⑨ |⑫---|
50
□□□□ |----|
□□□□ |----|
□□□□ |----|
□□□□ |----|
51
□□□□ |----|
□□□□ |----|
□□□□ |----|
□□□□ |----|
52
①□①⑧ |①-②③|
③□③⑥ |-④⑤-|
⑤□⑤④ |⑥⑦-⑧|
⑦□⑦② |⑨-⑩-⑪-⑫--⑬--|

⑬⑨⑬□
□⑩□□
□⑪□□
□⑫□□
53
□□□□ |-①②-|
②□②⑤ |③④-⑤|
④□④③ |⑥-⑦⑧|
⑥□⑥① |-⑨⑩-|

□□⑨⑦
□□□□
□⑩□⑩
□⑧□⑧
54
③①□□ |①②-③|
④②④② |④---|
□□□□ |⑤-⑥⑦|
□□④□ |-⑧⑨-|

□□⑧⑥
□□□□
⑤⑦⑨□
⑤⑦⑨□
55
③①□□ |①②-③|
⑦⑥⑤④ |④-⑤-⑥-⑦--⑧--|
⑧□□② |-⑨⑩-|
⑧□□② |⑪⑫-⑬|

□⑬⑪⑨
□□□□
□⑩⑫□
□⑩⑫□
56
②⑦⑤③ |①-②③|
④⑦⑤③ |-④⑤-|
⑥□□① |⑥⑦-⑧|
□□□① |⑨---|

□□□□
□□□□
□⑨□⑨
⑧⑨□⑨
57
⑤⑦①③ |①-②③|
⑦⑤③① |-④⑤-|
②□□□ |⑥⑦-⑧|
④⑧□⑥ |⑨-⑩-⑪-⑫--⑬--|

□□□⑬
□□⑬□
⑫⑪⑩⑨
□□□□
58
②□④□ |-①②-|
⑥②⑧④ |③④-⑤|
□⑥□⑧ |⑥-⑦⑧|
③⑦①⑤ |-⑨⑩-|

□□□□
□⑩□□
⑩□□□
□□⑨□
59
②②②② |①②--|
□□□□ |----|
□□①□ |----|
□□□□ |----|
最終更新:2023年03月16日 05:38