アットウィキロゴ
1
□□□□|①-②③|
□□②□|④-⑤-|
①□③□|--⑥-|
□>□①|⑦-⑧-|

⑤□⑥□
⑧>□⑦
□⑦□□
□□④7

2
⑤□⑨□|①-②③|
□⑧②□|④-⑤-|
①⑦③□|--⑥⑦|
□⑥④□|⑧-⑨-|

3
□⑥□□|①-②③|
⑦□④1|④-⑤-|
□⑧③□|--⑥-|
⑤□②□|⑦-⑧-|

4
□□□□|①-②③|
□>□①|④-⑤-|
□□③□|--⑥-|
□□②□|⑦-⑧-|

⑤□⑥□
□□④5
□>□⑤
□□□□

□□□□
⑦□□□
□□□7
□⑧□⑦

5
⑤□⑥①|①-②③|
□□②□|④-⑤-|
①⑦③⑦|--⑥-|
□□④□|⑦-⑧-|

□□□□
⑧>□⑧
□□□□
□□□□

6
⑤□⑩□|①-②③|
□⑨②6|④-⑤-|
①⑧③□|⑥-⑦⑧|
□⑦④⑥|⑨-⑩-|

7
□⑤□③|--①②|
⑥□③□|③-④-|
□⑦②□|--⑤-|
④□①□|⑥-⑦-|

8
②⑧⑦□|--①-|
□⑥□□|②-③④|
①□□□|⑤-⑥-|
⑤④③□|⑦-⑧-|

9
□□□□|①-②③|
□□②□|④-⑤-|
①□③□|--⑥-|
□>□①|⑦-⑧-|

⑤□⑥□
⑧>□⑦
□⑦□□
□□④7

10
⑤□⑨□|①-②③|
□⑧②□|④-⑤-|
①⑦③□|--⑥⑦|
□⑥④□|⑧-⑨-|

11
□⑥□□|①-②③|
⑦□④①|④-⑤-|
□⑧③□|--⑥-|
⑤□②□|⑦-⑧-|

12
□□□□|①-②③|
□>□①|④-⑤-|
□□③□|--⑥-|
□□②□|⑦-⑧-|

⑤□⑥□
□□④5
□>□⑤
□□□□

□□□□
⑦□□□
□□□7
□⑧□⑦

13
⑤□⑥①|①-②③|
□□②□|④-⑤-|
①⑦③⑦|--⑥-|
□□④□|⑦-⑧-|

□□□□
⑧>□⑧
□□□□
□□□□

14
⑤□⑩□|①-②③|
□⑨②6|④-⑤-|
①⑧③□|⑥-⑦⑧|
□⑦④⑥|⑨-⑩-|

15
⑦③⑭⑥|①②③④|
⑪⑮②⑩|⑤⑥⑦⑧|
⑤⑬⑫⑯|⑨⑩⑪⑫|
①⑨④⑧|⑬⑭⑮⑯|

16
∨□∨②|①---|
□□□□|②---|
□□□□|③-④-|
①□①□|⑤---|

□⑤⑤□
□□③□
□□□□
5④5□

17
③□□⑥|①-②-|
⑦③⑥□|③-④-|
②①□④|⑤-⑥-|
□□⑧⑤|⑦-⑧-|

18
□②①□|①-②-|
□④⑤⑥|③-④-|
□①②④|⑤-⑥-|
③⑥⑦□|⑦-⑧-|

□□□□
□□□□
□⑧□□
□□□⑧

19
⑤□□②|①---|
②④□⑤|②-③-|
①⑥①③|④-⑤-|
③□□□|⑥-⑦-|

□□□□
□□□□
⑦□□□
□□□⑦

20
□④②⑥|①-②-|
⑧⑤③⑦|③-④-|
□⑦①⑥|⑤-⑥-|
⑧②④□|⑦-⑧-|

21
⑥□③□|①-②-|
□⑥③□|③-④-|
④□②⑦|⑤-⑥-|
⑧⑤□①|⑦-⑧-|

22
□①②④|①-②-|
④⑥③□|③-④-|
□②①□|⑤-⑥-|
⑦□⑤⑥|⑦-⑧-|

□⑧□□
□□□□
□□□⑧
□□□□

23
③□③⑥|①-②-|
⑥⑦⑤⑧|③-④-|
□□②□|⑤-⑥-|
□①④□|⑦-⑧-|

24
□④⑦□|①-②-|
⑧□□⑧|③-④-|
①②③①|⑤-⑥-|
⑥④⑦⑤|⑦-⑧-|

25
③□□⑥|①-②-|
⑦③⑥□|③-④-|
②①□④|⑤-⑥-|
□□⑧⑤|⑦-⑧-|

26
□②①□|①-②-|
□④⑤⑥|③-④-|
□①②④|⑤-⑥-|
③⑥⑦□|⑦-⑧-|

□□□□
□□□□
□⑧□□
□□□⑧

27
⑤□□②|①---|
②④□⑤|②-③-|
①⑥①③|④-⑤-|
③□□□|⑥-⑦-|

□□□□
□□□□
⑦□□□
□□□⑦

28
□④②⑥|①-②-|
⑧⑤③⑦|③-④-|
□⑦①⑥|⑤-⑥-|
⑧②④□|⑦-⑧-|

29
⑥□③□|①-②-|
□⑥③□|③-④-|
④□②⑦|⑤-⑥-|
⑧⑤□①|⑦-⑧-|

30
□①②④|①-②-|
④⑥③□|③-④-|
□②①□|⑤-⑥-|
⑦□⑤⑥|⑦-⑧-|

□⑧□□
□□□□
□□□⑧
□□□□

31
③□③⑥|①-②-|
⑥⑦⑤⑧|③-④-|
□□②□|⑤-⑥-|
□①④□|⑦-⑧-|

32
③⑦⑥⑩|①②③④|
⑬⑭⑮⑯|⑤⑥⑦⑧|
⑪①②⑫|⑨⑩⑪⑫|
⑤⑨④⑧|⑬⑭⑮⑯|

33
①④□□|①---|
□□□□|②-③-|
⑤③□□|④-⑤-|
②⑥□□|⑥-⑦-|

⑦□⑦□
□□□□
□□□□
□□□□

34
□⑨⑨⑦|①-②-|
⑥⑤④③|③④⑤⑥|
□□⑧□|⑦-⑧-|
□⑩①②|⑨-⑩-|

35
□□□⑧|①-②-|
③④⑤⑥|③④⑤⑥|
①⑨□□|⑦-⑧-|
⑦□⑩②|⑨-⑩-|

36
④□①□|①-②-|
□③⑤□|③-④-|
□⑥②⑦|⑤-⑥-|
□⑧□□|⑦-⑧-|

37
⑩⑦⑩①|①-②-|
③④⑤⑥|③④⑤⑥|
⑧□□□|⑦-⑧-|
□⑨□②|⑨-⑩-|

38
□⑨⑨⑦|①-②-|
⑥⑤④③|③④⑤⑥|
□②□□|⑦-⑧-|
⑩□⑧①|⑨-⑩-|

39
②⑧□□|①-②-|
□③⑦□|③-④-|
□□④⑥|⑤-⑥-|
□⑤□①|⑦-⑧-|

40
□□①①|①-②-|
④④⑧□|③-④-|
□②⑤□|⑤-⑥-|
□⑥③⑦|⑦-⑧-|

41
①⑤□□|①-②-|
□□□□|③-④-|
⑥④□②|⑤-⑥-|
③⑦□□|⑦-⑧-|

⑧□⑧□
□□□□
□□□□
□□□□

42
□⑨⑨⑦|①-②-|
⑥⑤④③|③④⑤⑥|
□□⑧□|⑦-⑧-|
□⑩①②|⑨-⑩-|

43
□□□⑧|①-②-|
③④⑤⑥|③④⑤⑥|
①⑨□□|⑦-⑧-|
⑦□⑩②|⑨-⑩-|

44
④□①□|①-②-|
□③⑤□|③-④-|
□⑥②⑦|⑤-⑥-|
□⑧□□|⑦-⑧-|

45
⑩⑦⑩①|①-②-|
③④⑤⑥|③④⑤⑥|
⑧□□□|⑦-⑧-|
□⑨□②|⑨-⑩-|

46
□⑨⑨⑦|①-②-|
⑥⑤④③|③④⑤⑥|
□②□□|⑦-⑧-|
⑩□⑧①|⑨-⑩-|

47
②⑧□□|①-②-|
□③⑦□|③-④-|
□□④⑥|⑤-⑥-|
□⑤□①|⑦-⑧-|

48
⑧⑯⑤①|①②③④|
⑫④⑬⑨|⑤⑥⑦⑧|
⑩⑥⑪⑮|⑨⑩⑪⑫|
②⑭③⑦|⑬⑭⑮⑯|

49
>□□①|①---|
□□□□|----|
□□□□|----|
□□□□|②-③-|

②③□2
□□□□
□□□□
□□□□

50
□□□□|----|
□□□□|----|
□□□□|①---|
□>□①|②---|

□□□□
>□②□
□□□□
□□□2

51
□∨□□|①---|
□□1□|②-③-|
□①□□|④---|
□□□□|⑤---|

②□<□
□□□□
□2□□
□□□□

3④∨□
⑤□□□
□□□□
□□③□

52
□□□□|①---|
⑥□□②|②-③-|
□⑤③□|--④-|
④①1□|⑤-⑥-|

53
□①□<|①---|
□□□□|②-③-|
□□□□|--④-|
□□□□|--⑤-|

□2□□
□□□□
>□②□
□□□□

□□□□
□∨□□
□□3□
□③□□

□□□□
□□□⑤
□□□□
□4□④

54
□□□□|①---|
①□<□|②-③-|
□□□□|--④-|
□□□□|----|

□□□□
2□□□
□>□②
□□□□

□□□□
□□∨□
□□□3
□□③□

□∨□□
□□□□
□④□□
□□4□

55
□□□②|①---|
□□□□|②-③-|
□1①□|--④-|
□□□□|⑤-⑥-|

□□③□
⑥□□□
⑤□□□
④□∧□

56
①⑥1⑥|①---|
□②□□|②---|
□⑦③□|③-④⑤|
□④⑤□|⑥-⑦-|

57
①□□□|①---|
④⑤□②|②-③-|
□□□□|④---|
>□□③|⑤---|

58
□□□□|①---|
□□③□|②---|
①□□□|③---|
□②∧3|④---|

□□□□
□□4□
□④□<
□□□□

59
□□□①|①---|
□□□②|②---|
□□□③|③---|
□□□④|④---|

60
②□<□|①---|
□□□□|②---|
□2□□|③---|
□□①□|④---|

3□□□
③□<□
□□□□
□□□□

□□□□
4□□□
④□<□
□□□□

61
□□⑧⑦|①-②-|
□□⑥⑤|③-④-|
1□④③|⑤-⑥-|
□□②①|⑦-⑧-|

62
⑦⑧□□|①-②-|
⑤⑥□□|③-④-|
③④□□|⑤-⑥-|
①②□□|⑦-⑧-|

63
⑬□⑩②|①②③④|
⑦⑪⑥⑭|⑤⑥⑦⑧|
③⑤⑫□|⑨⑩⑪⑫|
①⑨④⑧|⑬⑭⑮⑯|

□□□⑯
□□□□
□□□□
⑮□□□

64
□①□□|①---|
□⑥②□|②---|
⑥④□□|③-④⑤|
⑥□⑤③|⑥---|

65
①□③②|①②③④|
⑦⑭⑨⑧|⑤⑥⑦⑧|
⑬⑩⑥⑤|⑨⑩⑪⑫|
□④⑫⑪|⑬-⑭-|

66
⑭①③②|①②③④|
⑩⑬⑨⑧|⑤⑥⑦⑧|
□□⑥⑤|⑨⑩⑪⑫|
④⑦⑫⑪|⑬-⑭-|

67
⑬④③②|①②③④|
⑩⑩⑨⑧|⑤⑥⑦⑧|
①④⑥⑤|⑨⑩⑪⑫|
⑦⑦⑫⑪|⑬-⑭-|

□□□□
□□□□
⑭□□□
□□□□

68
□①③②|①②③④|
⑦⑬⑨⑧|⑤⑥⑦⑧|
□⑩⑥⑤|⑨⑩⑪⑫|
⑦④⑫⑪|⑬-⑭-|

□⑭□□
□□□□
⑭□□□
□□□□

69
①□③②|①②③④|
⑦⑭⑨⑧|⑤⑥⑦⑧|
⑬⑩⑥⑤|⑨⑩⑪⑫|
□④⑫⑪|⑬-⑭-|

70
⑭①③②|①②③④|
⑩⑬⑨⑧|⑤⑥⑦⑧|
□□⑥⑤|⑨⑩⑪⑫|
④⑦⑫⑪|⑬-⑭-|

71
⑬④③②|①②③④|
⑩⑩⑨⑧|⑤⑥⑦⑧|
①④⑥⑤|⑨⑩⑪⑫|
⑦⑦⑫⑪|⑬-⑭-|

□□□□
□□□□
⑭□□□
□□□□

72
□⑩⑤②|①②③④|
□⑦⑪⑧|⑤⑥⑦⑧|
⑬①⑥③|⑨⑩⑪⑫|
⑭④⑫⑨|⑬-⑭-|

73
①□③②|①②③④|
⑦⑭⑨⑧|⑤⑥⑦⑧|
⑬⑩⑥⑤|⑨⑩⑪⑫|
□④⑫⑪|⑬-⑭-|

74
⑭①③②|①②③④|
⑩⑬⑨⑧|⑤⑥⑦⑧|
□□⑥⑤|⑨⑩⑪⑫|
④⑦⑫⑪|⑬-⑭-|

75
⑬④③②|①②③④|
⑩⑩⑨⑧|⑤⑥⑦⑧|
①④⑥⑤|⑨⑩⑪⑫|
⑦⑦⑫⑪|⑬-⑭-|

□□□□
□□□□
⑭□□□
□□□□

76
□①③②|①②③④|
⑦⑬⑨⑧|⑤⑥⑦⑧|
□⑩⑥⑤|⑨⑩⑪⑫|
⑦④⑫⑪|⑬-⑭-|

□⑭□□
□□□□
⑭□□□
□□□□

77
①□③②|①②③④|
⑦⑭⑨⑧|⑤⑥⑦⑧|
⑬⑩⑥⑤|⑨⑩⑪⑫|
□④⑫⑪|⑬-⑭-|

78
⑦①③②|①②③④|
⑩⑭⑨⑧|⑤⑥⑦⑧|
□⑦⑥⑤|⑨⑩⑪⑫|
④⑬⑫⑪|⑬-⑭-|

79
⑦④⑥②|①②③④|
⑩⑭⑫⑧|⑤⑥⑦⑧|
⑩⑦③⑤|⑨⑩⑪⑫|
①⑬⑨⑪|⑬-⑭-|

80
⑩①⑤②|①②③④|
⑦⑭⑪⑧|⑤⑥⑦⑧|
⑩⑦⑥③|⑨⑩⑪⑫|
④⑬⑫⑨|⑬-⑭-|

81
⑦⑤③①|①-②-|
□□□□|③-④-|
⑧⑥④②|⑤-⑥-|
□□□□|⑦-⑧-|

82
□□□□|①-②-|
⑦⑤③①|③-④-|
□□□□|⑤-⑥-|
⑧⑥④②|⑦-⑧-|

83
□②□①|①-②-|
□④□③|③-④-|
□⑥□⑤|⑤-⑥-|
□⑧□⑦|⑦-⑧-|

84
②□①□|①-②-|
④□③□|③-④-|
⑥□⑤□|⑤-⑥-|
⑧□⑦□|⑦-⑧-|

85
①□③□|①-②-|
□⑦□⑤|③-④-|
⑧②⑥④|⑤-⑥-|
□□□□|⑦-⑧-|

86
□⑥□⑧|①-②-|
④□②□|③-④-|
□□□□|⑤-⑥-|
⑤③⑦①|⑦-⑧-|

87
⑧□⑦□|①-②-|
□⑥□⑤|③-④-|
④□③□|⑤-⑥-|
□②□①|⑦-⑧-|

88
⑨②□⑨|①-②-|
⑥□③□|③④⑤-|
□④□⑧|⑥-⑦⑧|
⑤⑦□①|⑨---|

89
□⑦①□|①②③④|
⑪⑧②⑤|⑤-⑥-|
□⑨③□|⑦⑧⑨⑩|
⑫⑩④⑥|⑪-⑫-|

90
⑦□□①|①②③④|
⑧⑪⑤②|⑤-⑥-|
⑨□□③|⑦⑧⑨⑩|
⑩⑫⑥④|⑪-⑫-|

91
□⑦①□|①②③④|
⑪⑧②⑤|⑤-⑥-|
□⑨③□|⑦⑧⑨⑩|
⑫⑩④⑥|⑪-⑫-|

92
⑦□□①|①②③④|
⑧⑪⑤②|⑤-⑥-|
⑨□□③|⑦⑧⑨⑩|
⑩⑫⑥④|⑪-⑫-|

93
⑦□□①|①②③④|
⑪⑧②⑤|⑤-⑥-|
⑨□□③|⑦⑧⑨⑩|
⑫⑩④⑥|⑪-⑫-|

94
□⑦①□|①②③④|
⑧⑪⑤②|⑤-⑥-|
□⑨③□|⑦⑧⑨⑩|
⑩⑫⑥④|⑪-⑫-|

95
⑦□□①|①②③④|
⑪⑧②⑤|⑤-⑥-|
⑨□□③|⑦⑧⑨⑩|
⑫⑩④⑥|⑪-⑫-|

96
□⑦⑦①|①---|
□□②□|②---|
□③□④|③-④-|
□⑤⑥□|⑤⑥⑦-|
最終更新:2023年03月16日 05:41