アットウィキロゴ
1
□①□□ |----|
□□①□ |----|
□□□□ |----|
□□□□ |--①-|

2
□⑦④② |--①-|
⑤□□⑥ |②-③-|
□③②④ |④-⑤-|
①□⑥□ |⑥-⑦-|

3
⑥⑦⑤③ |①-②-|
⑥⑦①□ |③-④-|
④□③⑤ |⑤-⑥-|
□②□① |--⑦-|

4
□⑦④② |--①-|
⑤□□⑥ |②-③-|
□③②④ |④-⑤-|
①□⑥□ |⑥-⑦-|

5
⑥⑦⑤③ |①-②-|
⑥⑦①□ |③-④-|
④□③⑤ |⑤-⑥-|
□②□① |--⑦-|

6
□□□⑤ |--①-|
⑥□□③ |②-③-|
④②⑥⑦ |④-⑤-|
②④□① |⑥-⑦-|

7
①□⑦⑥ |①-②-|
⑦②①⑥ |③-④-|
⑤③□⑦ |⑤-⑥-|
⑤⑦④③ |--⑦-|

8
②④□□ |--①-|
⑦⑥③□ |②-③-|
④②①□ |④-⑤-|
⑥□⑤□ |⑥-⑦-|

9
□⑦□□ |--①-|
□□⑦□ |②-③-|
□②①④ |④-⑤-|
□③⑥⑤ |⑥-⑦-|

10
□⑦④② |--①-|
⑤□□⑥ |②-③-|
□③②④ |④-⑤-|
①□⑥□ |⑥-⑦-|

11
⑥⑦⑤③ |①-②-|
⑥⑦①□ |③-④-|
④□③⑤ |⑤-⑥-|
□②□① |--⑦-|

12
□⑦④② |--①-|
⑤□□⑥ |②-③-|
□③②④ |④-⑤-|
①□⑥□ |⑥-⑦-|

13
⑥⑦⑤③ |①-②-|
⑥⑦①□ |③-④-|
④□③⑤ |⑤-⑥-|
□②□① |--⑦-|

14
□□□⑤ |--①-|
⑥□□③ |②-③-|
④②⑥⑦ |④-⑤-|
②④□① |⑥-⑦-|

15
①□⑦⑥ |①-②-|
⑦②①⑥ |③-④-|
⑤③□⑦ |⑤-⑥-|
⑤⑦④③ |--⑦-|

16
②④□□ |--①-|
⑦⑥③□ |②-③-|
④②①□ |④-⑤-|
⑥□⑤□ |⑥-⑦-|

17
⑩⑨⑧⑦ |--①-|
⑪□□⑥ |②-③-|
⑫②①⑤ |④⑤⑥⑦⑧⑨|
□③□④ |⑩⑪⑫⑬--|

□□□□
□□□□
□□□□
⑬<□□

18
⑦□□⑥ |-①②-|
□③③□ |③-④-|
⑧⑤⑤□ |⑤-⑥-|
1④②□ |⑦-⑧-|

19
□②□□ |①-②-|
④⑤□□ |--③-|
□∨∨① |④-⑤-|
□③③□ |⑥-⑦-|

⑦□⑦□
□□⑥□
□□□□
□66□

20
□⑤□④ |--①-|
□⑥□② |②-③-|
①⑦②④ |④--⑤⑥⑦|
③⑧⑨⑨ |⑧-⑨-|

21
□□②□ |①-②-|
①□⑤③ |--③-|
□④③⑤ |--④-|
④□□□ |--⑤-|

22
⑤①②① |①-②-|
⑥□□□ |③-④-|
⑤□□□ |⑤-⑥-|
□③④③ |--⑦-|

□□□□
□□□⑦
□□□|
□□□∧

23
⑦①⑥□ |--①-|
⑦⑤②6 |②-③-|
□③④□ |④-⑤-|
□□□□ |⑥-⑦-|

24
□⑤⑦□ |--①-|
□⑥⑥□ |②-③-|
⑤⑦⑤⑦ |④-⑤-|
④③②① |⑥-⑦-|

25
□□□□ |--①-|
②□□① |②-③-|
∨□□□ |④-⑤-|
④⑤⑤③ |--⑥-|

□□⑥⑥
□□□□
□□□□
6□□□

26
①□□□ |--①-|
③②②□ |②-③-|
⑤④④□ |④-⑤-|
⑦⑥⑥□ |⑥-⑦-|

27
②□□□ |①-②-|
④□□① |--③-|
④>―③ |--④-|
□>―③ |--⑤-|

□⑤⑤□
□□□□
□□□5
□□□5

28
⑤□□④ |--①-|
⑥□④② |②-③-|
⑦③②□ |④--⑤⑥⑦|
⑧①⑨□ |⑧-⑨-|

29
□□□□ |①-②-|
∨②∨③ |--③-|
④□④① |--④-|
□□□③ |--⑤-|

□□□□
□□□□
5⑤5□
□□□□

30
①②①⑤ |①-②-|
□□□⑥ |③-④-|
□□□⑤ |⑤-⑥-|
③④③□ |--⑦-|

□□□□
⑦□□□
|□□□
∧□□□

31
□①□⑨ |--①②|
8②⑤□ |③-④-|
□③⑥⑨ |⑤⑥⑦-|
□⑧⑦④ |⑧-⑨-|

32
①□②□ |--①-|
□③□□ |②-③-|
□□④□ |④---|
□⑤□⑤ |⑤---|

33
①□□⑥ |---①②③|
②⑦□⑧ |④-⑤-|
③⑨―< |⑥-⑦-|
④□⑤□ |⑧-⑨-|

34
□□②□ |--①-|
④□①④ |②---|
□1□□ |③---|
④③③④ |④---|

35
∨□□□ |①---|
|□□□ |--②-|
①□□② |----|
□□□□ |----|

36
□∨□□ |①---|
□|□□ |--②-|
□①□② |----|
□□□□ |----|

37
□□∨□ |①---|
□□|③ |--②-|
□□①② |----|
□□□□ |③---|

38
□□□① |①---|
□□□□ |----|
222② |②---|
□□□□ |----|

39
∨□□□ |①---|
|□□□ |--②-|
|□□□ |----|
①□□② |----|

40
□∨□③ |①---|
□|□□ |--②-|
□|□□ |----|
□①□② |③---|

41
□□∨③ |①---|
□□|① |--②-|
□□|□ |----|
□□①② |③---|

42
□④③□ |①-②-|
⑤⑦⑧② |③-④-|
⑥□□① |⑤-⑥-|
111□ |⑦-⑧-|

43
□□□□ |①-②-|
□□□□ |③-④-|
□□③④ |⑤-⑥-|
①<②① |⑦-⑧-|

□□⑦⑥
□□⑧⑤
□□□□
5□□□

44
□□□□ |①-②-|
□□□□ |③-④-|
①<③④ |⑤-⑥-|
□□②① |⑦-⑧-|

□□⑦⑥
□□⑧⑤
5□□□
□□□□

45
□□□□ |①-②-|
①<□□ |③-④-|
□□③④ |⑤-⑥-|
□□②① |⑦-⑧-|

⑧□□⑥
5□□⑤
⑦□□□
□□□□

46
□⑥⑦⑧ |①-②③|
⑨②①□ |④-⑤-|
⑩③□⑤ |⑥⑦⑧-|
□④□□ |⑨-⑩-|

47
□□□□ |①-②-|
□□□□ |③-④-|
□□③④ |⑤-⑥-|
①<②① |⑦-⑧-|

□□⑦⑥
□□⑧⑤
□□□□
5□□□

48
□□□□ |①-②-|
□□□□ |③-④-|
①<③④ |⑤-⑥-|
□□②① |⑦-⑧-|

□□⑦⑥
□□⑧⑤
5□□□
□□□□

49
□□□□ |①-②-|
①<□□ |③-④-|
□□③④ |⑤-⑥-|
□□②① |⑦-⑧-|

□□□⑦
5⑧□⑤
□⑥□□
□□□□

50
②②①□ |①---|
④□③□ |②---|
④□③□ |③---|
④④□□ |④---|

51
□∨□∨ |①---|
□①□① |----|
□①∨① |----|
□□①□ |----|

52
□□□□ |----|
□1□1 |----|
□□□□ |----|
□□1□ |①---|

53
①③②⑤ |①-②③|
□□④□ |④-⑤-|
⑨⑥⑦□ |⑥⑦⑧-|
□⑧□⑩ |⑨-⑩-|

54
①③②⑤ |①-②③|
□□④□ |④-⑤-|
⑨⑥⑦□ |⑥⑦⑧-|
□⑧□⑩ |⑨-⑩-|

55
①⑤②⑥ |①-②-|
□□□□ |③-④-|
□□□□ |⑤-⑥-|
③⑦④⑧ |⑦-⑧-|

56
①⑤②⑥ |①-②-|
□□□□ |③-④-|
□□□□ |⑤-⑥-|
③⑦④⑧ |⑦-⑧-|

57
⑨⑬②⑩ |①②③④|
③⑦⑭⑧ |⑤⑥⑦⑧|
①⑪④⑥ |⑨⑩⑪⑫|
⑤□⑫□ |⑬⑭⑮-|

□□□□
□□□□
□□□□
>⑮□□

58
④□□⑦ |--①-|
□③□□ |②-③-|
⑤□②⑥ |④-⑤-|
□□□① |⑥-⑦-|

59
□②③□ |①---|
□□□□ |②---|
④③②④ |③---|
□1□□ |④---|

60
⑥□□⑦ |①-②-|
①③③① |③-④-|
□⑤⑤⑧ |⑤-⑥-|
①②④① |⑦-⑧-|

61
□□②□ |①-②-|
□□⑤④ |--③-|
①∨∨□ |④-⑤-|
□③③□ |⑥-⑦-|

□⑦□⑦
□⑥□□
□□□□
□66□

62
④□⑤□ |--①-|
②□⑥□ |②-③-|
④②⑦① |④--⑤⑥⑦|
⑨⑨⑧③ |⑧-⑨-|

63
□②□□ |①-②-|
③⑤□① |--③-|
⑤③④□ |--④-|
□□□④ |--⑤-|

64
①②①⑤ |①-②-|
□□□⑥ |③-④-|
□□□⑤ |⑤-⑥-|
③④③□ |--⑦-|

□□□□
⑦□□□
|□□□
∧□□□

65
□⑥①⑦ |--①-|
6②⑤⑦ |②-③-|
□④③□ |④-⑤-|
□□□□ |⑥-⑦-|

66
□⑦⑤□ |--①-|
□⑥⑥□ |②-③-|
⑦⑤⑦⑤ |④-⑤-|
①②③④ |⑥-⑦-|

67
□□□□ |--①-|
①□□② |②-③-|
□□□∨ |④-⑤-|
③⑤⑤④ |--⑥-|

⑥⑥□□
□□□□
□□□□
□□□6

68
□□□① |--①-|
□②②③ |②-③-|
□④④⑤ |④-⑤-|
□⑥⑥⑦ |⑥-⑦-|

69
□□□② |①-②-|
①□□④ |--③-|
③―<④ |--④-|
③―<□ |--⑤-|

□⑤⑤□
□□□□
5□□□
5□□□

70
④□□⑤ |--①-|
②④□⑥ |②-③-|
□②③⑦ |④--⑤⑥⑦|
□⑨①⑧ |⑧-⑨-|

71
□□□□ |①-②-|
③∨②∨ |--③-|
①④□④ |--④-|
③□□□ |--⑤-|

□□□□
□□□□
□5⑤5
□□□□

72
⑤①②① |①-②-|
⑥□□□ |③-④-|
⑤□□□ |⑤-⑥-|
□③④③ |--⑦-|

□□□□
□□□⑦
□□□|
□□□∧

73
⑨□①□ |--①②|
□⑤②8 |③-④-|
⑨⑥③□ |⑤⑥⑦-|
④⑦⑧□ |⑧-⑨-|

74
□②□① |--①-|
⑥□③□ |②-③-|
⑥④□① |④---|
⑤□⑤□ |⑤-⑥-|

75
⑩⑨⑧⑦ |--①-|
⑪①□⑥ |②-③-|
⑫□②⑤ |④⑤⑥⑦⑧⑨|
□③□④ |⑩⑪⑫⑬--|

□□□□
□□□□
□□□□
⑬<□□

76
□⑨□□ |-①②③|
⑩□②⑥ |④-⑤-|
⑪⑤③⑦ |⑥⑦⑧-|
1□④⑧ |⑨-⑩⑪|

77
⑨⑩□∨ |①-②-|
□③②⑪ |③④⑤-|
□④⑧⑦ |⑥-⑦⑧|
①⑤⑥□ |⑨⑩⑪-|

78
□>④□ |--①-|
①②③4 |②-③-|
⑦□□□ |④-⑤-|
⑥⑤□□ |⑥-⑦-|

79
□□1□ |①-②-|
□∨□□ |③-④-|
□①④③ |⑤-⑥-|
□□□② |⑦-⑧-|

□□□□
⑥⑦□□
□5□□
□>⑤□

>⑧□□
□□□□
□□□□
□□8□

80
□6①② |①-②-|
□□④③ |③-④-|
⑦□⑤⑥ |⑤-⑥-|
□□□⑧ |⑦-⑧-|

81
□□□∨ |①-②-|
□③□④ |③-④-|
□□□□ |--⑤-|
①□②□ |⑥-⑦-|

□⑦∨□
□□⑦5
□⑤⑥□
□□□□

82
□□□□ |----|
□□1□ |①---|
□□□□ |②-③-|
□①<□ |--④-|

③□□④
□□□□
□□□②
④2□③

83
⑦①②⑦ |--①-|
③③③④ |②-③-|
⑤⑤⑤⑥ |④-⑤-|
□□□□ |⑥-⑦-|

84
□②④□ |--①-|
⑦□④⑥ |②-③-|
⑤□□□ |④-⑤-|
□③①□ |⑥-⑦-|

85
②④<□ |①-②-|
□□□□ |③-④-|
□④①① |--⑤-|
□□□③ |⑥-⑦-|

□5⑦⑤
□⑥⑤⑦
□□□□
□□□□

86
⑤□□□ |--①-|
⑥□□□ |②-③-|
⑦③□④ |④--⑤⑥⑦|
⑧①⑨② |⑧-⑨-|

87
□①□② |①-②-|
⑩⑨⑧□ |③-④-|
□⑤⑥⑦ |⑤⑥⑦⑧|
□③□④ |⑨⑩⑪-|

⑪□□□
|□□□
|□□□
∧□□□

88
6□①□ |①---|
□□□① |②-③-|
□④⑤□ |④-⑤-|
□③②□ |⑥-⑦-|

□>―⑦
□□□□
□□□□
□□□□

89
□□□1 |--①-|
①―<□ |--②-|
□□□□ |--③-|
□□□□ |④-⑤-|

□□□□
2□□□
□>―②
□□□□

∨□③□
|④□□
⑤□□3
⑤□□□

90
□②□□ |----|
□④③□ |①---|
1□⑤□ |②-③-|
□□□① |④-⑤-|

91
④□□① |--①-|
②□□③ |②-③-|
□□□⑨ |④---⑤⑥⑦⑧|
⑧⑦⑥⑤ |--⑨-|

92
□①④□ |--①-|
⑤⑥⑦⑧ |②-③-|
□③②□ |④---⑤⑥⑦⑧|
□⑨□□ |--⑨-|

93
④□⑨① |--①-|
□□□□ |②-③-|
⑧⑦⑥⑤ |④---⑤⑥⑦⑧|
②□□③ |--⑨-|

94
④④□□ |--①-|
③①②③ |②---|
④④□□ |③---|
□②①□ |④---|

95
□□□□ |①-②-|
□□□□ |③---|
□□③□ |④-⑤-|
①<②① |--⑥-|

□□□⑤
□□□④
□□□⑥
4□□□

96
□□□□ |①-②-|
□□□□ |③---|
①<③□ |④-⑤-|
□□②① |--⑥-|

□□□⑤
□□□④
4□□⑥
□□□□

97
□□□□ |①-②-|
①<□□ |③---|
□□③□ |④-⑤-|
□□②① |⑥-⑦-|

□⑦⑥⑤
4□□④
□□□□
□□□□

98
①□□⑨ |①-②③|
□⑧②⑥ |④-⑤-|
⑤③⑦⑩ |⑥⑦⑧-|
□□④□ |⑨-⑩-|

99
□□□□ |①-②-|
□□□□ |③---|
□③□□ |④-⑤-|
①②>① |--⑥-|

⑤□□□
④□□□
⑥□□□
□□□4

100
□□□□ |①-②-|
□□□□ |③---|
□③>① |④-⑤-|
①②□□ |--⑥-|

⑤□□□
④□□□
⑥□□4
□□□□

101
□□□□ |①-②-|
□□>① |③---|
□③□□ |④-⑤-|
①②□□ |⑥-⑦-|

⑤⑥⑦□
□□□4
□□□□
□□□□

102
□□□① |①-②-|
⑥③②□ |③-④-|
⑦④⑤□ |⑤-⑥⑦|
⑧□□⑨ |⑧-⑨-|
最終更新:2023年03月16日 05:42